Ссылка на приватное зеркало всего за 1$. Внимание количество ограничено!!!

iTunes

iTunes

iTunes

1

iTunes

iTunes

iTunes

iTunes

iTunes

30
pack

Новость дня

ВАЖНО

!!Акция!!

Alien_RageХит недели

RePack

Resident Evil 21

ИГРА 18+

pack

RePack

jed

!!Акция!!

Alien_Rage

RePack

fifa19

RePack

Assassins Creed: Odyssey

RePack

NEED FOR SPEED™ PAYBACK

4 сезон

9 сезон

Бесстыжие 9 сезон

Все сериалы

все сериалы на PB.wtf

RePack

FAR CRY 5
  

Девушка с татуировкой дракона / Män som hatar kvinnor (Нильс Арден Оплев) [2009 г., триллер, драма, криминал, детектив, Blu-Ray] piratbit.org

Девушка с татуировкой дракона через торрент piratbit.org

Размер: 20.53 GB | Добавлен: 8 лет 1 мес. назад | Торрент скачан:56 раз
Скачать  

29-02-2012 01:07 Девушка с татуировкой дракона Скачать торрент  

Девушка с татуировкой дракона / Män som hatar kvinnor

Год выпуска: 2009
Страна: Германия, Дания, Швеция, Норвегия
Жанр: триллер, драма, криминал, детектив
Продолжительность: 02:32:44
Перевод: Профессиональный (полное дублирование) [Лицензия]

Режиссер: Нильс Арден Оплев

Лицам до 17 лет обязательно присутствие взрослого


В ролях: Микаэл Нюквист, Нуми Рапас, Питер Абер, Свен-Бертиль Таубе, Петер Андерссон, Ингвар Хирдвалль, Марика Лагеркранц, Лена Эндре, Бьёрн Гранат, Ева Фрёлинг

Описание: Микаэль Блумквист - талантливый журналист, который верой и правдой добивается справедливости в самых скандальных делах - неожиданно терпит фиаско в своей деятельности, в результате чего вынужден отбыть срок лишения свободы.

В то же время влиятельный человек Хенрик Вангер поручает ему дело о пропаже его племянницы, которая таинственным образом исчезла из имения Вангеров, и о которой вот уже множество лет нет никаких новостей. А попытки Хенрика разыскать родственницу так же не приводят к положительным результатам.

Будучи скептиком, Микаэль сначала не верит в удачу, но вскоре обнаруживает запутанную и леденящую кровь историю, связанную с семейством Вангеров. В этом журналисту помогает неформальная особа Лисбет Саландер, прослывшая не только гениальным умом, фотографической памятью, но и прекрасными хакерскими способностями.

Качество: Blu-Ray
Формат: BDMV
Видео кодек: AVC
Аудио кодек: DTS, AC3
Видео: AVC, 1920x1080 (16:9), 23.976 fps, 16.3 Mbps (0.327 bit/pixel)
Аудио#1: DTS MA / Core, 48.0 KHz, 6 ch, 1 203 Kbps / 1 152 Kbps, VBR [Дубляж]
Аудио#2: AC-3, 48.0 KHz, 6 ch, 384 Kbps, CBR [Дубляж]
Аудио#3: AC-3, 48.0 KHz, 6 ch, 448 Kbps, CBR [Шведский]
Субтитры: Русский
Скачать
| |

скриншот  скриншот  скриншот  скриншот  

Общее
Идентификатор : 0 (0x0)
Полное имя : D:\Torrents\GIRL_DRAGON_TATOO\BDMV\STREAM\00005.m2ts
Формат : BDAV
Формат/Информация : Blu-ray Video
Размер файла : 20,3 Гбайт
Продолжительность : 2 ч. 32 м.
Режим общего битрейта : Переменный
Общий поток : 19,1 Мбит/сек
Максимальный общий битрейт : 48,0 Мбит/сек

Видео
Идентификатор : 4113 (0x1011)
Идентификатор меню : 1 (0x1)
Формат : AVC
Формат/Информация : Advanced Video Codec
Профиль формата : High@L4.1
Параметр CABAC формата : Да
Параметр ReFrames формата : 4 кадра
Параметр GOP формата : M=3, N=24
Идентификатор кодека : 27
Продолжительность : 2 ч. 32 м.
Вид битрейта : Переменный
Битрейт : 16,3 Мбит/сек
Максимальный битрейт : 35,0 Мбит/сек
Ширина : 1920 пикселей
Высота : 1080 пикселей
Соотношение сторон : 16:9
Частота кадров : 23,976 кадра/сек
Стандарт вещания : NTSC
Цветовое пространство : YUV
Субдискретизация насыщенности : 4:2:0
Битовая глубина : 8 бит
Тип развёртки : Прогрессивная
Бит/(Пиксели*Кадры) : 0.327
Размер потока : 17,3 Гбайт (85%)
Основные цвета : BT.709-5, BT.1361, IEC 61966-2-4, SMPTE RP177
Характеристики трансфера : BT.709-5, BT.1361
Коэффициенты матрицы : BT.709-5, BT.1361, IEC 61966-2-4 709, SMPTE RP177

Аудио #1
Идентификатор : 4352 (0x1100)
Идентификатор меню : 1 (0x1)
Формат : DTS
Формат/Информация : Digital Theater Systems
Профиль формата : MA / Core
Режим смешивания : Stream extension
Идентификатор кодека : 134
Продолжительность : 2 ч. 32 м.
Вид битрейта : Переменный
Битрейт : 1203 Кбит/сек / 1152 Кбит/сек
Каналы : 6 каналов
Расположение каналов : Front: L C R, Side: L R, LFE
Частота : 48,0 КГц
Битовая глубина : 16 бит
Метод сжатия : Без потерь / Lossy

Аудио #2
Идентификатор : 4353 (0x1101)
Идентификатор меню : 1 (0x1)
Формат : AC-3
Формат/Информация : Audio Coding 3
Расширение режима : CM (complete main)
Идентификатор кодека : 129
Продолжительность : 2 ч. 32 м.
Вид битрейта : Постоянный
Битрейт : 384 Кбит/сек
Каналы : 6 каналов
Расположение каналов : Front: L C R, Side: L R, LFE
Частота : 48,0 КГц
Битовая глубина : 16 бит
Метод сжатия : С потерями
Размер потока : 420 Мбайт (2%)

Аудио #3
Идентификатор : 4354 (0x1102)
Идентификатор меню : 1 (0x1)
Формат : AC-3
Формат/Информация : Audio Coding 3
Расширение режима : CM (complete main)
Идентификатор кодека : 129
Продолжительность : 2 ч. 32 м.
Вид битрейта : Постоянный
Битрейт : 448 Кбит/сек
Каналы : 6 каналов
Расположение каналов : Front: L C R, Side: L R, LFE
Частота : 48,0 КГц
Битовая глубина : 16 бит
Метод сжатия : С потерями
Размер потока : 489 Мбайт (2%)

Текст
Идентификатор : 4608 (0x1200)
Идентификатор меню : 1 (0x1)
Формат : PGS
Идентификатор кодека : 144
Задержка видео : 14 с.
DISC INFO:

Disc Title: GIRL_DRAGON_TATOO
Disc Size: 22,045,844,952 bytes
Protection: AACS
BD-Java: No
BDInfo: 0.5.4

PLAYLIST REPORT:

Name: 00002.MPLS
Length: 2:32:44 (h:m:s)
Size: 21,846,349,824 bytes
Total Bitrate: 19,07 Mbps

VIDEO:

Codec Bitrate Description
----- ------- -----------
MPEG-4 AVC Video 15385 kbps 1080p / 23,976 fps / 16:9 / High Profile 4.1

AUDIO:

Codec Language Bitrate Description
----- -------- ------- -----------
DTS-HD Master Audio Russian 1747 kbps 5.1 / 48 kHz / 1747 kbps / 16-bit (DTS Core: 5.1 / 48 kHz / 1152 kbps / 16-bit)
Dolby Digital Audio Russian 384 kbps 5.1 / 48 kHz / 384 kbps / DN -4dB
Dolby Digital Audio Swedish 448 kbps 5.1 / 48 kHz / 448 kbps / DN -4dB

SUBTITLES:

Codec Language Bitrate Description
----- -------- ------- -----------
Presentation Graphics Russian 26,055 kbps
• Когда Лизбет шлет зашифрованное письмо Чуме, на экране отображается «Расшифровка» вместо «Шифрование».
• В начале фильма у Лизбет был фотоаппарат Canon. Однако, чуть позже, компьютер определит его как Nikon.
• В сцене с молодым Мигелем, камера скользит вниз, показывая мальчика в современной обуви.
• Действие фильма происходит в 2005 году, но и Мигель и Лизбет пользуются Apple MacBook Pros, который поступил в продажу в 2006 году. Также, у Лизбет установлен Mac OS X 10.5 (Leopard), который вышел лишь в 2007.
• Эрик Кресс спешно покинул проект по конфиденциальным причинам, и фильм пришлось доснимать Дженсу Фишеру, причем большая часть фильма отснята именно им.
piratbit.org



Скачать Девушка с татуировкой дракона через торрент http://pic.kartinco.top/images/2011/1cw9z7e439.jpg Скачать фильм Девушка с татуировкой дракона через торрент бесплантно в хорошем качестве Описание: Микаэль Блумквист - талантливый журналист, который верой и правдой добивается справедливости в самых скандальных делах - ... 5 10 11
Info! Золотая раздача, скачанное не засчитывается.
Торрент: Зарегистрирован [2012-02-29 01:07] · скачан: 56 раз
Статус: √ проверено
Размер: 20.53 GB
Как cкачать? Как скачать Девушка с татуировкой дракона через торрент | qTorrent

28-11-2019 20:33  

Отключить всю рекламу на сайте

    Дорогой пользователь! Огромная просьба, поблагодарите релизера, оцените раздачу и оставьте свои комментарий, если Вы скачали Девушка с татуировкой дракона через торрент бесплатно! Внесите свою лепту в развитие PiratBit!
    Комментировать посты могут только пользователи прошедшие не сложную регистрацию
    Показать сообщения:    

    Девушка с татуировкой дракона через торрент
    Скачать бесплатно Девушка с татуировкой дракона
    Девушка с татуировкой дракона скачать торрент
    Девушка с татуировкой дракона смотреть онлайн
    Cкачать фильм Девушка с татуировкой дракона бесплатно
    Девушка с татуировкой дракона скачать торрент в хорошем качестве
    Девушка с татуировкой дракона смотреть онлайн бесплатно в хорошем качестве


    Вы не можете начинать темы
    Вы не можете отвечать на сообщения
    Вы не можете редактировать свои сообщения
    Вы не можете удалять свои сообщения
    Вы не можете голосовать в опросах
    Вы не можете прикреплять файлы к сообщениям
    Вы можете скачивать файлы