Ссылка на приватное зеркало всего за 1$. Внимание количество ограничено!!!

iTunes

iTunes

iTunes

1

iTunes

iTunes

iTunes

iTunes

iTunes

30
pack

Новость дня

ВАЖНО

!!Акция!!

Alien_RageХит недели

RePack

Resident Evil 21

ИГРА 18+

pack

RePack

jed

!!Акция!!

Alien_Rage

RePack

fifa19

RePack

Assassins Creed: Odyssey

RePack

NEED FOR SPEED™ PAYBACK

4 сезон

9 сезон

Бесстыжие 9 сезон

Все сериалы

все сериалы на PB.wtf

RePack

FAR CRY 5
  

Девушка с татуировкой дракона / Män som hatar kvinnor (Нильс Арден Оплев) [2009 г., триллер, драма, криминал, детектив, BD-Remux] piratbit.org

Девушка с татуировкой дракона через торрент piratbit.org

Размер: 19.18 GB | Добавлен: 8 лет 1 мес. назад | Торрент скачан:29 раз
Скачать  

01-03-2012 19:57 Девушка с татуировкой дракона Скачать торрент  

Девушка с татуировкой дракона / Män som hatar kvinnor

Год выпуска: 2009
Страна: Германия, Дания, Швеция, Норвегия
Жанр: триллер, драма, криминал, детектив
Продолжительность: 02:32:44
Перевод: Профессиональный (полное дублирование) [Лицензия]

Режиссер: Нильс Арден Оплев

Лицам до 17 лет обязательно присутствие взрослого


В ролях: Микаэл Нюквист, Нуми Рапас, Питер Абер, Свен-Бертиль Таубе, Петер Андерссон, Ингвар Хирдвалль, Марика Лагеркранц, Лена Эндре, Бьёрн Гранат, Ева Фрёлинг

Описание: Микаэль Блумквист - талантливый журналист, который верой и правдой добивается справедливости в самых скандальных делах - неожиданно терпит фиаско в своей деятельности, в результате чего вынужден отбыть срок лишения свободы.

В то же время влиятельный человек Хенрик Вангер поручает ему дело о пропаже его племянницы, которая таинственным образом исчезла из имения Вангеров, и о которой вот уже множество лет нет никаких новостей. А попытки Хенрика разыскать родственницу так же не приводят к положительным результатам.

Будучи скептиком, Микаэль сначала не верит в удачу, но вскоре обнаруживает запутанную и леденящую кровь историю, связанную с семейством Вангеров. В этом журналисту помогает неформальная особа Лисбет Саландер, прослывшая не только гениальным умом, фотографической памятью, но и прекрасными хакерскими способностями.

Качество: BD-Remux
Формат: MKV
Видео кодек: AVC
Аудио кодек: DTS, AC3
Видео: AVC, 1920x1080 (16:9), 23.976 fps, 15.6 Mbps (0.314 bit/pixel)
Аудио#1: DTS MA / Core, 48.0 KHz, 6 ch, 1 203 Kbps / 1 152 Kbps, VBR [Дубляж]
Аудио#2: AC-3, 48.0 KHz, 6 ch, 384 Kbps, CBR [Дубляж] [Отдельно]
Аудио#3: AC-3, 48.0 KHz, 6 ch, 448 Kbps, CBR [Шведский] [Отдельно]
Субтитры: РусскийРелиз от

Скачать
| |

скриншот  скриншот  скриншот  скриншот  
Общее
Уникальный идентификатор : 254486066195756642297514068605617808171 (0xBF743BC8B9A05422AD62F0B6804BA32B)
Полное имя : D:\Torrents\Девушка с татуировкой дракона BD-Remux [Piratbit.net R.G. HD Films]\Девушка с татуировкой дракона BD-Remux [Piratbit.net R.G. HD Films].mkv
Формат : Matroska
Версия формата : Version 2
Размер файла : 18,3 Гбайт
Продолжительность : 2 ч. 32 м.
Режим общего битрейта : Переменный
Общий поток : 17,1 Мбит/сек
Название фильма : Piratbit.net R.G. HD-Films ©
Дата кодирования : UTC 2012-03-01 19:50:34
Программа кодирования : mkvmerge v5.0.1 ('Es ist Sommer') built on Oct 9 2011 11:55:43
Библиотека кодирования : libebml v1.2.2 + libmatroska v1.3.0

Видео
Идентификатор : 1
Формат : AVC
Формат/Информация : Advanced Video Codec
Профиль формата : High@L4.1
Параметр CABAC формата : Да
Параметр ReFrames формата : 4 кадра
Параметр GOP формата : M=3, N=24
Идентификатор кодека : V_MPEG4/ISO/AVC
Продолжительность : 2 ч. 32 м.
Вид битрейта : Переменный
Битрейт : 15,6 Мбит/сек
Максимальный битрейт : 35,0 Мбит/сек
Ширина : 1920 пикселей
Высота : 1080 пикселей
Соотношение сторон : 16:9
Частота кадров : 23,976 кадра/сек
Стандарт вещания : NTSC
Цветовое пространство : YUV
Субдискретизация насыщенности : 4:2:0
Битовая глубина : 8 бит
Тип развёртки : Прогрессивная
Бит/(Пиксели*Кадры) : 0.314
Размер потока : 16,6 Гбайт (91%)
Default : Да
Forced : Нет
Основные цвета : BT.709-5, BT.1361, IEC 61966-2-4, SMPTE RP177
Характеристики трансфера : BT.709-5, BT.1361
Коэффициенты матрицы : BT.709-5, BT.1361, IEC 61966-2-4 709, SMPTE RP177

Аудио
Идентификатор : 2
Формат : DTS
Формат/Информация : Digital Theater Systems
Профиль формата : MA / Core
Идентификатор кодека : A_DTS
Продолжительность : 2 ч. 32 м.
Вид битрейта : Переменный
Битрейт : 1203 Кбит/сек / 1152 Кбит/сек
Каналы : 6 каналов
Расположение каналов : Front: L C R, Side: L R, LFE
Частота : 48,0 КГц
Битовая глубина : 16 бит
Метод сжатия : Без потерь / Lossy
Default : Да
Forced : Нет

Текст
Идентификатор : 3
Формат : PGS
Режим смешивания : zlib
Идентификатор кодека : S_HDMV/PGS
Идентификатор кодека/Информация : The same subtitle format used on BDs/HD-DVDs
Default : Да
Forced : Нет

Меню
00:00:00.000 : :Chapter 01
00:07:23.192 : :Chapter 02
00:16:55.681 : :Chapter 03
00:23:36.415 : :Chapter 04
00:32:21.856 : :Chapter 05
00:43:34.820 : :Chapter 06
00:47:34.309 : :Chapter 07
00:58:29.339 : :Chapter 08
01:05:34.472 : :Chapter 09
01:14:44.104 : :Chapter 10
01:24:14.340 : :Chapter 11
01:31:11.340 : :Chapter 12
01:43:58.565 : :Chapter 13
01:52:00.839 : :Chapter 14
02:09:32.765 : :Chapter 15
02:25:39.105 : :Chapter 16
Общее
Полное имя : D:\Torrents\Девушка с татуировкой дракона BD-Remux [Piratbit.net R.G. HD Films]\Девушка с татуировкой дракона BD-Remux [Piratbit.net R.G. HD Films](Русский).ac3
Формат : AC-3
Формат/Информация : Audio Coding 3
Размер файла : 420 Мбайт
Продолжительность : 2 ч. 32 м.
Режим общего битрейта : Постоянный
Общий поток : 384 Кбит/сек

Аудио
Формат : AC-3
Формат/Информация : Audio Coding 3
Расширение режима : CM (complete main)
Продолжительность : 2 ч. 32 м.
Вид битрейта : Постоянный
Битрейт : 384 Кбит/сек
Каналы : 6 каналов
Расположение каналов : Front: L C R, Side: L R, LFE
Частота : 48,0 КГц
Битовая глубина : 16 бит
Метод сжатия : С потерями
Размер потока : 420 Мбайт (100%)
Общее
Полное имя : D:\Torrents\Девушка с татуировкой дракона BD-Remux [Piratbit.net R.G. HD Films]\Девушка с татуировкой дракона BD-Remux [Piratbit.net R.G. HD Films](Шведский).ac3
Формат : AC-3
Формат/Информация : Audio Coding 3
Размер файла : 489 Мбайт
Продолжительность : 2 ч. 32 м.
Режим общего битрейта : Постоянный
Общий поток : 448 Кбит/сек

Аудио
Формат : AC-3
Формат/Информация : Audio Coding 3
Расширение режима : CM (complete main)
Продолжительность : 2 ч. 32 м.
Вид битрейта : Постоянный
Битрейт : 448 Кбит/сек
Каналы : 6 каналов
Расположение каналов : Front: L C R, Side: L R, LFE
Частота : 48,0 КГц
Битовая глубина : 16 бит
Метод сжатия : С потерями
Размер потока : 489 Мбайт (100%)
• Когда Лизбет шлет зашифрованное письмо Чуме, на экране отображается «Расшифровка» вместо «Шифрование».
• В начале фильма у Лизбет был фотоаппарат Canon. Однако, чуть позже, компьютер определит его как Nikon.
• В сцене с молодым Мигелем, камера скользит вниз, показывая мальчика в современной обуви.
• Действие фильма происходит в 2005 году, но и Мигель и Лизбет пользуются Apple MacBook Pros, который поступил в продажу в 2006 году. Также, у Лизбет установлен Mac OS X 10.5 (Leopard), который вышел лишь в 2007.
• Эрик Кресс спешно покинул проект по конфиденциальным причинам, и фильм пришлось доснимать Дженсу Фишеру, причем большая часть фильма отснята именно им.
piratbit.org



Скачать Девушка с татуировкой дракона через торрент http://pic.kartinco.top/images/2011/1cw9z7e439.jpg Скачать фильм Девушка с татуировкой дракона через торрент бесплантно в хорошем качестве Описание: Микаэль Блумквист - талантливый журналист, который верой и правдой добивается справедливости в самых скандальных делах - ... 10 10 2
Info! Золотая раздача, скачанное не засчитывается.
Торрент: Зарегистрирован [2012-03-01 21:12] · скачан: 29 раз
Статус: √ проверено
Размер: 19.18 GB
Как cкачать? Как скачать Девушка с татуировкой дракона через торрент | qTorrent



Последний раз редактировалось: shuller (2012-03-01 21:40), всего редактировалось 1 раз

28-11-2019 20:33  

Отключить всю рекламу на сайте

01-03-2012 21:21 Девушка с татуировкой дракона Скачать торрент  

Год выпуска: 2009 а разве не 2011?
Нет! Описание для чего? Смотрим на страну производителя! Это оригинальный фильм, а не американский римейк! piratbit.org



01-03-2012 21:30 Девушка с татуировкой дракона Скачать торрент  

А что за название у американского римейка?
Девушка с татуировкой дракона / The Girl with the Dragon Tattoo
Здесь информация о римейке
piratbit.org



01-03-2012 21:33 Девушка с татуировкой дракона Скачать торрент  

Прикольно...я и не знал, что в 2009 году уже был такой...только про тот что в 11-ом...Видимо американский лучше пропиарили.piratbit.org



    Дорогой пользователь! Огромная просьба, поблагодарите релизера, оцените раздачу и оставьте свои комментарий, если Вы скачали Девушка с татуировкой дракона через торрент бесплатно! Внесите свою лепту в развитие PiratBit!
    Комментировать посты могут только пользователи прошедшие не сложную регистрацию
    Показать сообщения:    

    Девушка с татуировкой дракона через торрент
    Скачать бесплатно Девушка с татуировкой дракона
    Девушка с татуировкой дракона скачать торрент
    Девушка с татуировкой дракона смотреть онлайн
    Cкачать фильм Девушка с татуировкой дракона бесплатно
    Девушка с татуировкой дракона скачать торрент в хорошем качестве
    Девушка с татуировкой дракона смотреть онлайн бесплатно в хорошем качестве


    Вы не можете начинать темы
    Вы не можете отвечать на сообщения
    Вы не можете редактировать свои сообщения
    Вы не можете удалять свои сообщения
    Вы не можете голосовать в опросах
    Вы не можете прикреплять файлы к сообщениям
    Вы можете скачивать файлы