Ссылка на приватное зеркало всего за 1$. Внимание количество ограничено!!!

iTunes

iTunes

iTunes

1

iTunes

iTunes

iTunes

iTunes

iTunes

30
pack

Новость дня

ВАЖНО

!!Акция!!

Alien_RageХит недели

RePack

Resident Evil 21

ИГРА 18+

pack

RePack

jed

!!Акция!!

Alien_Rage

RePack

fifa19

RePack

Assassins Creed: Odyssey

RePack

NEED FOR SPEED™ PAYBACK

4 сезон

9 сезон

Бесстыжие 9 сезон

Все сериалы

все сериалы на PB.wtf

RePack

FAR CRY 5
  

Мартовские иды / The Ides of March (Джордж Клуни) [2011 г., драма, BD-Remux] [ОМИКРОН] piratbit.org

Мартовские иды через торрент piratbit.org

Размер: 31.06 GB | Добавлен: 8 лет 1 мес. назад | Торрент скачан:10 раз
Скачать  

04-03-2012 15:03 Мартовские иды Скачать торрент  

Мартовские иды / The Ides of March

Год выпуска: 2011
Страна: США
Жанр: драма
Продолжительность: 01:41:11
Перевод: Профессиональный (многоголосый, закадровый) [студия "Омикрон"]

Режиссер: Джордж Клуни

Лицам до 17 лет обязательно присутствие взрослого



В ролях: Райан Гослинг, Джордж Клуни, Филип Сеймур Хоффман, Пол Джаматти, Мариса Томей, Джеффри Райт, Ивэн Рэйчел Вуд, Макс Мингелла, Дженнифер Эль, Грегори Итцин, Даниил Щебланов, Станислав Концевич, Алексей Колган, Сергей Бурунов, Татьяна Шитова

Описание: В фильме рассказывается об избирательной кампании Говарда Дина, проводившейся во время первичных выборов кандидата на пост президента США от демократической партии в 2004 году.

Качество: BD-Remux
Формат: BDAV (m2ts)
Видео кодек: AVC
Аудио кодек: DTS
Видео: AVC, 1920x1080 (16:9), 23.976 fps, 38.9 Mbps (0.782 bit/pixel)
Аудио#1: DTS MA / Core, 48.0 KHz, 6 ch, 1 561 Kbps / 1 510 Kbps, VBR (Russian) [студия "Омикрон"]
Аудио#2: DTS MA / Core, 48.0 KHz, 6 ch, 1 561 Kbps / 1 510 Kbps, VBR (English)
Аудио#3: AC-3, 48.0 KHz, 2 ch, 192 Kbps, CBR (Comentary)
Субтитры: English, English (SDH), English (Commentary)

скриншот  скриншот  скриншот  скриншот  

Общее
Идентификатор : 1 (0x1)
Полное имя : D:\Torrents\THE_IDES_OF_MARCH_2011_BD-REMUX_HDCLUB\BDMV\STREAM\00000.m2ts
Формат : BDAV
Формат/Информация : Blu-ray Video
Размер файла : 31,1 Гбайт
Продолжительность : 1 ч. 41 м.
Режим общего битрейта : Переменный
Общий поток : 43,9 Мбит/сек
Максимальный общий битрейт : 35,5 Мбит/сек

Видео
Идентификатор : 4113 (0x1011)
Идентификатор меню : 1 (0x1)
Формат : AVC
Формат/Информация : Advanced Video Codec
Профиль формата : High@L4.1
Параметр CABAC формата : Да
Параметр ReFrames формата : 4 кадра
Идентификатор кодека : 27
Продолжительность : 1 ч. 41 м.
Вид битрейта : Переменный
Битрейт : 38,9 Мбит/сек
Максимальный битрейт : 37,0 Мбит/сек
Ширина : 1920 пикселей
Высота : 1080 пикселей
Соотношение сторон : 16:9
Частота кадров : 23,976 кадра/сек
Цветовое пространство : YUV
Субдискретизация насыщенности : 4:2:0
Битовая глубина : 8 бит
Тип развёртки : Прогрессивная
Бит/(Пиксели*Кадры) : 0.782
Размер потока : 27,5 Гбайт (88%)

Аудио #1
Идентификатор : 4352 (0x1100)
Идентификатор меню : 1 (0x1)
Формат : DTS
Формат/Информация : Digital Theater Systems
Профиль формата : MA / Core
Режим смешивания : Stream extension
Идентификатор кодека : 134
Продолжительность : 1 ч. 41 м.
Вид битрейта : Переменный
Битрейт : 1561 Кбит/сек / 1510 Кбит/сек
Каналы : 6 каналов
Расположение каналов : Front: L C R, Side: L R, LFE
Частота : 48,0 КГц
Битовая глубина : 24 бит
Метод сжатия : Без потерь / Lossy
Язык : Russian

Аудио #2
Идентификатор : 4353 (0x1101)
Идентификатор меню : 1 (0x1)
Формат : DTS
Формат/Информация : Digital Theater Systems
Профиль формата : MA / Core
Режим смешивания : Stream extension
Идентификатор кодека : 134
Продолжительность : 1 ч. 41 м.
Вид битрейта : Переменный
Битрейт : 1561 Кбит/сек / 1510 Кбит/сек
Каналы : 6 каналов
Расположение каналов : Front: L C R, Side: L R, LFE
Частота : 48,0 КГц
Битовая глубина : 24 бит
Метод сжатия : Без потерь / Lossy
Язык : English

Аудио #3
Идентификатор : 4354 (0x1102)
Идентификатор меню : 1 (0x1)
Формат : AC-3
Формат/Информация : Audio Coding 3
Расширение режима : CM (complete main)
Идентификатор кодека : 129
Продолжительность : 1 ч. 41 м.
Вид битрейта : Постоянный
Битрейт : 192 Кбит/сек
Каналы : 2 канала
Расположение каналов : Front: L R
Частота : 48,0 КГц
Битовая глубина : 16 бит
Метод сжатия : С потерями
Размер потока : 139 Мбайт (0%)
Язык : English

Текст
Идентификатор : 4610 (0x1202)
Идентификатор меню : 1 (0x1)
Формат : PGS
Идентификатор кодека : 144
Язык : English

piratbit.org



Скачать Мартовские иды через торрент http://pic.kartinco.top/images/2011/utgqfzvchs.jpg Скачать фильм Мартовские иды через торрент бесплантно в хорошем качестве Описание: В фильме рассказывается об избирательной кампании Говарда Дина, проводившейся во время первичных выборов кандидата на пост ... 5 10 3
Info! Золотая раздача, скачанное не засчитывается.
Торрент: Зарегистрирован [2012-03-04 15:03] · скачан: 10 раз
Статус: √ проверено
Размер: 31.06 GB
Как cкачать? Как скачать Мартовские иды через торрент | qTorrent

% Раздел Тема Автор DL S | L
Фильмы [HD 720p, 1080p] (Хороший звук DUB, MVO) [ 13.6 GB ] Мартовские иды / The Ides of March [2011 BDRip 1080p by msltel] DUB MVO AVO msltel Скачать
1 | 0
Фильмы [HD 720p, 1080p] (Хороший звук DUB, MVO) [ 4.54 GB ] Мартовские иды / The Ides of March [2011 BDRip 720p by msltel] DUB MVO AVO msltel Скачать
1 | 0
Фильмы 2011 [ 2.74 GB ] Мартовские иды / The Ides of March [2011 BDRip AVC by msltel] DUB MVO AVO msltel Скачать
1 | 0
Фильмы 2011 [ 2.05 GB ] Мартовские иды / The Ides of March [2011 HDRip лицензия] ACFIORENTINA Скачать
1 | 0
Фильмы [HD 720p, 1080p] (Хороший звук DUB, MVO) [ 7.09 GB ] Мартовские иды / The Ides of March [2011 BDRip лицензия] ~Relizer~ Скачать
1 | 0
Фильмы (Blu-ray, BD-Remux, HDDVD) [ 34.97 GB ] Мартовские иды / The Ides of March [2011 BD-Remux] [DUB+MVO+AVO] shuller Скачать
1 | 0
Фильмы (DVD фильмы) [ 5.85 GB ] Мартовские иды / The Ides of March [2011 DVD9] R5 voovaz Скачать
1 | 0

28-11-2019 20:33  

Отключить всю рекламу на сайте

    Дорогой пользователь! Огромная просьба, поблагодарите релизера, оцените раздачу и оставьте свои комментарий, если Вы скачали Мартовские иды через торрент бесплатно! Внесите свою лепту в развитие PiratBit!
    Комментировать посты могут только пользователи прошедшие не сложную регистрацию
    Показать сообщения:    

    Мартовские иды через торрент
    Скачать бесплатно Мартовские иды
    Мартовские иды скачать торрент
    Мартовские иды смотреть онлайн
    Cкачать фильм Мартовские иды бесплатно
    Мартовские иды скачать торрент в хорошем качестве
    Мартовские иды смотреть онлайн бесплатно в хорошем качестве


    Вы не можете начинать темы
    Вы не можете отвечать на сообщения
    Вы не можете редактировать свои сообщения
    Вы не можете удалять свои сообщения
    Вы не можете голосовать в опросах
    Вы не можете прикреплять файлы к сообщениям
    Вы можете скачивать файлы