Ссылка на приватное зеркало всего за 1$. Внимание количество ограничено!!!

iTunes

iTunes

iTunes

1

iTunes

iTunes

iTunes

iTunes

iTunes

30
pack

Новость дня

ВАЖНО

!!Акция!!

Alien_RageХит недели

RePack

Resident Evil 21

ИГРА 18+

pack

RePack

jed

!!Акция!!

Alien_Rage

RePack

fifa19

RePack

Assassins Creed: Odyssey

RePack

NEED FOR SPEED™ PAYBACK

4 сезон

9 сезон

Бесстыжие 9 сезон

Все сериалы

все сериалы на PB.wtf

RePack

FAR CRY 5
  

Как украсть небоскреб / Tower Heist (Бретт Рэтнер) [2011 г., комедия, криминал, BD-Remux, лицензия] piratbit.org

Как украсть небоскреб через торрент piratbit.org

Размер: 25.55 GB | Добавлен: 8 лет назад | Торрент скачан:101 раз
Скачать  

05-03-2012 10:16 Как украсть небоскреб Скачать торрент  



Как украсть небоскреб / Tower Heist
«Вся Влacть народу. И деньги тоже.»
Год выпуска: 2011
Страна: США, Imagine Entertainment
Жанр: комедия, криминал
Продолжительность: 01:44:33
Перевод: Профессиональный (полное дублирование)
Субтитры: Русские (форсированные), украинские, английские
Тип релиза: Лицензия

Режиссер: Бретт Рэтнер
Продюссер: Бра йан Грейзер, Эдди Мёрфи, Билл Карраро, ...
Сценарий: Тед Гриффин, Джефф Натансон, Адам Купер, ...

Бюджет: $75 000 000
Премьера в мире: 24 октября 2011

СЕМПЛ

В ролях: Бен Стиллер, Эдди Мёрфи, Кейси Аффлек, Алан Алда, Мэттью Бродерик, Теа Леони, Майкл Пенья, Габури «Гэбби» Сидибе, Стефен Хендерсон, Джадд Хёрш

Описание: Джошу Ковачу не повезло — его поимел злобный финансист, живущий в роскошных аппартаментах на верхнем этаже небоскреба. Чтобы вернуть деньги, Джош с друзьями решается на грандиозную кражу со взломом. Но одним им это не под силу, и они обращаются к матерому преступнику. Дело за малым — шесть новоявленных друзей Джоушена должны пробраться в пентхаус и отыскать 200 миллионов долларов.

Качество: BD-Remux
Формат: MKV
Видео кодек: MPEG-4
Аудио кодек: AC3,DTS-HD
Видео: MPEG-4 AVC, 30.9 Мбит/с, 1920x1080, 23.976 кадр/с
Аудио#1: Русский (AC3, 6 ch, 384 Кбит/с, 48kHz)
Аудио#2: английский (DTS-HD МА, 6 ch, 3718 Кбит/с, 48kHz)
Обще
Уникальный идентификатор : 217326488437597799546218243786686223604 (0xA37F8F265BB2A25CB52A7B44A98654F4)
Полное имя : H:BLU-RAY REMUXKak.ukrast.neboskreb.2011.MPEG-4-AVC.BluRay-Remux(1080p).mkv
Формат : Matroska
Размер файла : 25,6 Гбайт
Продолжительность : 1 ч. 44 м.
Общий поток : 35,0 Мбит/сек
Название фильма : --SCHUMAHER--
Дата кодирования : UTC 2012-03-02 21:34:51
Программа кодирования : mkvmerge v5.3.0 ('I could have danced') built on Feb 9 2012 10:38:07
Библиотека кодирования : libebml v1.2.3 + libmatroska v1.3.0

Видео
Идентификатор : 1
Формат : AVC
Формат/Информация : Advanced Video Codec
Профиль формата : High@L4.1
Параметр CABAC формата : Да
Параметр ReFrames формата : 4 кадры
Параметры GOP формата : M=2, N=25
Идентификатор кодека : V_MPEG4/ISO/AVC
Продолжительность : 1 ч. 44 м.
Вид битрейта : Переменный
Битрейт : 31,5 Мбит/сек
Максимальный битрейт : 33,0 Мбит/сек
Ширина : 1920 пикс.
Высота : 1080 пикс.
Соотношение сторон : 16:9
Частота кадров : 23,976 кадр/сек
Цветовое пространство : YUV
Подвыборка цветности : 4:2:0
Битовая глубина : 8 бит
Тип развёртки : Прогрессивная
Бит/(Пиксели*Кадры) : 0.633
Размер потока : 23,0 Гбайт (90%)
Язык : English
Основные цвета : BT.709-5, BT.1361, IEC 61966-2-4, SMPTE RP177
Характеристики трансфера : BT.709-5, BT.1361
Коэффициенты матрицы : BT.709-5, BT.1361, IEC 61966-2-4 709, SMPTE RP177

Аудио #1
Идентификатор : 2
Формат : AC-3
Формат/Информация : Audio Coding 3
Расширение режима : CM (complete main)
Идентификатор кодека : A_AC3
Продолжительность : 1 ч. 44 м.
Вид битрейта : Постоянный
Битрейт : 384 Кбит/сек
Канал(ы) : 6 канала(ов)
Расположение каналов : Front: L C R, Side: L R, LFE
Частота : 48,0 КГц
Битовая глубина : 16 бит
Метод сжатия : С потерями
Размер потока : 287 Мбайт (1%)
Язык : Russian

Аудио #2
Идентификатор : 3
Формат : DTS
Формат/Информация : Digital Theater Systems
Профиль формата : MA / Core
Идентификатор кодека : A_DTS
Продолжительность : 1 ч. 44 м.
Вид битрейта : Переменный
Битрейт : 2437 Кбит/сек / 1510 Кбит/сек
Канал(ы) : 6 канала(ов)
Расположение каналов : Front: L C R, Side: L R, LFE
Частота : 48,0 КГц
Битовая глубина : 24 бит
Метод сжатия : Без потерь / Lossy
Язык : English

Текст #1
Идентификатор : 4
Формат : UTF-8
Идентификатор кодека : S_TEXT/UTF8
Идентификатор кодека/Информация : UTF-8 Plain Text
Заголовок : Forced
Язык : Russian

Текст #2
Идентификатор : 5
Формат : UTF-8
Идентификатор кодека : S_TEXT/UTF8
Идентификатор кодека/Информация : UTF-8 Plain Text
Язык : Ukrainian

Текст #3
Идентификатор : 6
Формат : UTF-8
Идентификатор кодека : S_TEXT/UTF8
Идентификатор кодека/Информация : UTF-8 Plain Text
Язык : English

Текст #4
Идентификатор : 7
Формат : UTF-8
Идентификатор кодека : S_TEXT/UTF8
Идентификатор кодека/Информация : UTF-8 Plain Text
Заголовок : SDH
Язык : English

Меню
00:00:00.000 : en:
00:03:23.202 : en:
00:09:20.809 : en:
00:14:09.598 : en:
00:19:13.777 : en:
00:23:41.503 : en:
00:27:16.467 : en:
00:32:05.547 : en:
00:38:16.377 : en:
00:43:57.259 : en:
00:49:20.540 : en:
00:53:42.594 : en:
00:56:58.581 : en:
01:01:46.994 : en:
01:06:22.687 : en:
01:11:30.160 : en:
01:17:13.503 : en:
01:23:09.567 : en:
01:31:52.256 : en:
01:38:42.124 : en:
piratbit.org



Скачать Как украсть небоскреб через торрент http://i32.fastpic.ru/big/2012/0305/a4/99bb3e13f65db9074ecba48d37a0afa4.png Скачать фильм Как украсть небоскреб через торрент бесплантно в хорошем качестве Описание: Джошу Ковачу не повезло — его поимел злобный финансист, живущий в роскошных аппартаментах на верхнем этаже небоскреба. Чтобы ... 10 10 1
Info! Золотая раздача, скачанное не засчитывается.
Торрент: Зарегистрирован [2012-03-05 10:16] · скачан: 101 раз
Статус: √ проверено
Размер: 25.55 GB
Как cкачать? Как скачать Как украсть небоскреб через торрент | qTorrent

% Раздел Тема Автор DL S | L
Фильмы [HD 720p, 1080p] (Хороший звук DUB, MVO) [ 4.64 GB ] Как украсть небоскреб / Tower Heist [2011 BDRip ] ACFIORENTINA Скачать
1 | 0
Фильмы 2011 [ 1.36 GB ] Как украсть небоскреб / Tower Heist [2011 HDRip лицензия] makarevich Скачать
1 | 0
Фильмы 2011 [ 2.18 GB ] Как украсть небоскреб / Tower Heist [2011 BDRip лицензия] -=Cherry=- Скачать
1 | 0
Фильмы 2011 [ 1.45 GB ] Как украсть небоскреб / Tower Heist [2011 HDRip-AVC] Dean24 Скачать
1 | 0
Фильмы 2011 [ 701 MB ] Как украсть небоскреб / Tower Heist [2011 HDRip [ лицензия ]] tosha666 Скачать
1 | 0
Фильмы 2011 [ 2.1 GB ] Как украсть небоскреб / Tower Heist [2011 BDRip][720p] stalonе Скачать
1 | 0
Фильмы 2011 [ 1.45 GB ] Как украсть небоскреб / Tower Heist [2011 BDRip-AVC] xyligant Скачать
1 | 0

28-11-2019 20:33  

Отключить всю рекламу на сайте

    Дорогой пользователь! Огромная просьба, поблагодарите релизера, оцените раздачу и оставьте свои комментарий, если Вы скачали Как украсть небоскреб через торрент бесплатно! Внесите свою лепту в развитие PiratBit!
    Комментировать посты могут только пользователи прошедшие не сложную регистрацию
    Показать сообщения:    

    Как украсть небоскреб через торрент
    Скачать бесплатно Как украсть небоскреб
    Как украсть небоскреб скачать торрент
    Как украсть небоскреб смотреть онлайн
    Cкачать фильм Как украсть небоскреб бесплатно
    Как украсть небоскреб скачать торрент в хорошем качестве
    Как украсть небоскреб смотреть онлайн бесплатно в хорошем качестве


    Вы не можете начинать темы
    Вы не можете отвечать на сообщения
    Вы не можете редактировать свои сообщения
    Вы не можете удалять свои сообщения
    Вы не можете голосовать в опросах
    Вы не можете прикреплять файлы к сообщениям
    Вы можете скачивать файлы