1 сезон

iTunes

iTunes

1

Line

MVO

iTunes

13

1 сезон

RePack

30

Deluxe

pack

Лицензия

ВАЖНО

ИГРА 18+

pack

RePack

MK11

RePack

jed

RePack

fifa19

RePack

RDR2

RePack

NEED FOR SPEED™ PAYBACK

4 сезон

9 сезон

Бесстыжие 9 сезон

Все сериалы

все сериалы на PB.wtf

RePack

FAR CRY 5

Anonymous, добрый вечер, мы катастрофически не успеваем собрать деньги на оплату серверов, помогите нам пожалуйста 5,10,15р., для нас важна любая помощь . В качестве благодарности мы отключим Вам всю рекламу на сайте (укажите свой ник в строку Ваше имя)!

×
  
Magnet ссылка

От колыбели до могилы / Cradle 2 the Grave (Анджей Бартковяк) [2003 г., боевик, триллер, драма, криминал, DVDRip,МР4] piratbit.org

От колыбели до могилы через торрент piratbit.org

Размер: 293 MB | Добавлен: 9 лет 4 мес. назад | Торрент скачан:23 раза
Скачать  

10-03-2012 11:28 От колыбели до могилы Скачать торрент  

От колыбели до могилы / Cradle 2 the Grave

Год выпуска: 2003
Страна: США
Жанр: боевик, триллер, драма, криминал
Продолжительность: 01:37:04
Перевод: Профессиональный (многоголосый, закадровый)

Режиссер: Анджей Бартковяк
Продюссер: Джоэл Силвер, Рэй Коуплэнд, Сьюзан Дауни
Сценарий: Джон О’Брайэн, Чаннинг Гибсон

Бюджет: $25 000 000
Премьера в мире: 28 февраля 2003





В ролях: Джет Ли, DMX, Келли Ху, Энтони Андерсон, Том Арнольд, Марк Дакаскос, Гэбриэл Юнион, Майкл Джейс, Драг-Он, Пейдж Херд

Описание: Профессиональный грабитель и секретный агент объединяют свои усилия в борьбе против банды свирепых гангстеров под руководством жестокого мафиози… В центре сюжета — бесценные сокровища — черные алмазы из Тайваня. Сначала их похищает банда чернокожего вора Тони Фейта. Но драгоценности приносят ему лишь неприятности: хозяин камешков, торговец оружием Линг, похищает дочь Фейта и требует вернуть бриллианты. Только возвращать уже нечего: камни снова украдены, на этот раз бандой местного мафиози Джамба Чемберса. Чтобы вернуть дочь и уцелеть самому, Фейт вынужден объединиться с агентом тайваньской разведки Су, который тоже идет по следу бриллиантов. Дело в том, что черные алмазы — совсем не ювелирные драгоценности…

Качество: DVDRip
Формат: MPEG-4
Видео кодек: Другой MPEG4
Аудио кодек: AAC
Видео: 528x216,MPEG-4,1407 Кбит/сек,25,000 кадров/сек
Аудио#1: AAC,97,9 Кбит/сек,2 канала,48,0 КГц / 24,0 КГц
Общее
Полное имя : E:\Фильмі мр4\От колыбели до могилы.mp4
Формат : MPEG-4
Профиль формата : Base Media
Идентификатор кодека : isom
Размер файла : 293 Мбайт
Продолжительность : 1 ч. 37 м.
Режим общего битрейта : Переменный
Общий поток : 423 Кбит/сек
Дата кодирования : UTC 2011-08-12 18:30:05
Дата пометки : UTC 2011-08-12 18:30:05
Программа кодирования : My MP4Box GUI 0.5.5.4 <http://my-mp4box-gui.zymichost.com>

Видео
Идентификатор : 1
Формат : AVC
Формат/Информация : Advanced Video Codec
Профиль формата : High@L2.1
Параметр CABAC формата : Да
Параметр ReFrames формата : 6 кадров
Идентификатор кодека : avc1
Идентификатор кодека/Информация : Advanced Video Coding
Продолжительность : 1 ч. 37 м.
Битрейт : 355 Кбит/сек
Максимальный битрейт : 1407 Кбит/сек
Ширина : 528 пикселей
Высота : 216 пикселей
Соотношение сторон : 2,40:1
Режим частоты кадров : Постоянный
Частота кадров : 25,000 кадров/сек
Цветовое пространство : YUV
Субдискретизация насыщенности : 4:2:0
Битовая глубина : 8 бит
Тип развёртки : Прогрессивная
Бит/(Пиксели*Кадры) : 0.125
Размер потока : 247 Мбайт (84%)
Заголовок : Imported with GPAC 0.4.6-DEV (internal rev. 5)
Библиотека кодирования : x264 core 98 r1629bm 2e81ce1
Настройки программы : cabac=1 / ref=6 / deblock=1:0:0 / analyse=0x3:0x133 / me=umh / subme=9 / psy=1 / psy_rd=0.00:0.00 / mixed_ref=1 / me_range=16 / chroma_me=1 / trellis=2 / 8x8dct=1 / cqm=0 / deadzone=21,11 / fast_pskip=0 / chroma_qp_offset=0 / threads=3 / sliced_threads=1 / slices=3 / nr=0 / decimate=1 / interlaced=0 / constrained_intra=0 / bframes=6 / b_pyramid=2 / b_adapt=2 / b_bias=0 / direct=3 / weightb=1 / weightp=2 / keyint=250 / keyint_min=25 / scenecut=40 / intra_refresh=0 / rc=crf / mbtree=0 / crf=23.0 / qcomp=0.60 / qpmin=10 / qpmax=51 / qpstep=4 / ip_ratio=1.40 / pb_ratio=1.30 / aq=1:1.00
Дата кодирования : UTC 2011-08-12 18:30:05
Дата пометки : UTC 2011-08-12 18:30:45

Аудио
Идентификатор : 2
Формат : AAC
Формат/Информация : Advanced Audio Codec
Профиль формата : HE-AAC / LC
Идентификатор кодека : 40
Продолжительность : 1 ч. 37 м.
Вид битрейта : Переменный
Битрейт : 64,0 Кбит/сек
Максимальный битрейт : 97,9 Кбит/сек
Каналы : 2 канала
Расположение каналов : Front: L R
Частота : 48,0 КГц / 24,0 КГц
Метод сжатия : С потерями
Размер потока : 44,4 Мбайт (15%)
Дата кодирования : UTC 2011-08-12 18:30:44
Дата пометки : UTC 2011-08-12 18:30:45




piratbit.org



Скачать От колыбели до могилы через торрент http://i8.fastpic.ru/big/2010/0706/c9/c720cba14ddcb28a44f174286c951bc9.jpg Скачать фильм От колыбели до могилы через торрент бесплантно в хорошем качестве Описание: Профессиональный грабитель и секретный агент объединяют свои усилия в борьбе против банды свирепых гангстеров под руководством ... 4.5 10 4
Info! Золотая раздача, скачанное не засчитывается.
Торрент: Зарегистрирован [2012-03-10 11:28] · скачан: 23 раз
Статус: √ проверено
Размер: 293 MB
Как cкачать? Как скачать От колыбели до могилы через торрент | UTorrent

% Раздел Тема Автор DL S | L
Фильмы (HD 720p, 1080p) (48-60 fps) [ 4.85 GB ] От колыбели до могилы / Cradle 2 the Grave [2003 WEB-DLRip 720p / 60 FPS ] от R.G. HD-Films slaventi-69 Скачать
2 | 0
Фильмы [HD 720p, 1080p] (Хороший звук DUB, MVO) [ 7.77 GB ] От колыбели до могилы / Cradle 2 the Grave [2003 BDRip 1080p] [MVO] + [DVO] + 2x[AVO] killermax2013 Скачать
4 | 0
Фильмы (HD 720p, 1080p) (48-60 fps) [ 3.58 GB ] От колыбели до могилы / Cradle 2 the Grave [2003 BDRip 720p] 60fps от R.G. HD-Films slaventi-69 Скачать
2 | 0
Фильмы (WEB-DL 720p, 1080p) [ 14.8 GB ] От колыбели до могилы / Cradle 2 the Grave [2003 WEB-DL 1080p] [Open Matte] [MVO] + 2x [DVO] + 2x [AVO] + [VO] killermax2013 Скачать
1 | 0
Фильмы с авторской озвучкой [ 1.82 GB ] От колыбели до могилы / Cradle 2 the Grave [2003 BDRip Авторский одноголосный] killermax2013 Скачать
1 | 0
Фильмы 2001-2005 [ 1.46 GB ] От колыбели до могилы / Cradle 2 the Grave [2003 BDRip MVO + MVO + Оригинал] bogyn Скачать
2 | 0
Фильмы 2001-2005 [ 781 MB ] От колыбели до могилы / Cradle 2 the Grave [2003 HDTVRip] toxa1 Скачать
1 | 0

28-11-2019 20:33  

Отключить всю рекламу на сайте

    Дорогой пользователь! Огромная просьба, поблагодарите релизера, оцените раздачу и оставьте свои комментарий, если Вы скачали От колыбели до могилы через торрент бесплатно! Внесите свою лепту в развитие PiratBit!
    Комментировать посты могут только пользователи прошедшие не сложную регистрацию
    Показать сообщения:    

    От колыбели до могилы через торрент
    Скачать бесплатно От колыбели до могилы
    От колыбели до могилы скачать торрент
    От колыбели до могилы смотреть онлайн
    Cкачать фильм От колыбели до могилы бесплатно
    От колыбели до могилы скачать торрент в хорошем качестве
    От колыбели до могилы смотреть онлайн бесплатно в хорошем качестве


    Вы не можете начинать темы
    Вы не можете отвечать на сообщения
    Вы не можете редактировать свои сообщения
    Вы не можете удалять свои сообщения
    Вы не можете голосовать в опросах
    Вы не можете прикреплять файлы к сообщениям
    Вы можете скачивать файлы