Marvel's Avengers Deluxe Edition (супер цена) 159р. Внимание количество ограничено!!!

2 сезон

iTunes

iTunes

1

iTunes

iTunes

iTunes

WEBRip

iTunes

30
pack

Новость дня

ВАЖНО

!!Акция!!

Alien_RageХит недели

RePack

Horizon Zero Dawn

ИГРА 18+

pack

RePack

jed

!!Акция!!

Alien_Rage

RePack

fifa19

RePack

Assassins Creed: Odyssey

RePack

NEED FOR SPEED™ PAYBACK

4 сезон

9 сезон

Бесстыжие 9 сезон

Все сериалы

все сериалы на PB.wtf

RePack

FAR CRY 5
  

Молодость без молодости / Youth Without Youth (Френсис Форд Коппола) [2007 г., BDRip] piratbit.org

Молодость без молодости через торрент piratbit.org

Размер: 2.18 GB | Добавлен: 8 лет 5 мес. назад | Торрент скачан:26 раз
Скачать  

24-03-2012 16:46 Молодость без молодости Скачать торрент  

Молодость без молодости / Youth Without Youth

Год выпуска: 2007
Страна: США, Германия, Франция, Италия, Румыния
Продолжительность: фэнтези, триллер, драма, мелодрама, детектив
Перевод: Многоголосый закадровый (Русский), Двухголосый (Украинский)

Режиссер: Френсис Форд Коппола
Сценарий: Френсис Форд Коппола, Мирча Элиаде
Премьера в мире: 20 октября 2007



В ролях: Тим Рот, Александра Мария Лара, Бруно Ганц, Андре Хеннике, Марсель Юрес, Адриан Пинтеа, Александра Пиричи, Флорин Пирси, Мэтт Дэймон...

Описание: Фильм рассказывает историю профессора лингвистики, который, не сумев завершить труд всей своей жизни, принимает решение о самоубийстве. Но в день, когда он планировал осуществить задуманное, в него попадает молния. Вопреки всему профессору удаётся не только сохранить жизнь, но и обрести утраченную молодость. Однако он вынужден изменить имя и бежать из страны, чтобы скрыться от преследований нацистов, желающих использовать произошедший с ним феномен для создания новой человеческой расы.

Качество: BDRip
Формат: AVI
Видео кодек: XviD
Аудио кодек: AC3
Видео: 720х304 (2.35:1), 23,976 fps, 1585 kbps, 0.302 bit/pixel
Аудио#1: 48 kHz, AC3, 3/2 (L,C,R,l,r) + LFE ch, 448.00 kbps (Многоголосый - Русский)
Аудио#2: 48 kHz, AC3, 3/2 (L,C,R,l,r) + LFE ch, 448.00 kbps (Двухголосый - Украинский)

&
Общее
Полное имя : D:\Download\Youth Without Youth.2007.HQBDRip-PT.avi
Формат : AVI
Формат/Информация : Audio Video Interleave
Профиль формата : OpenDML
Размер файла : 2,18 Гбайт
Продолжительность : 2 ч. 4 м.
Общий поток : 2499 Кбит/сек
Название фильма : Молодость без молодости / Youth Without Youth (2007) BDRip
Программа кодирования : VirtualDubModRus 1.5.10.2 (build 2542/release)
Библиотека кодирования : VirtualDubMod build 2542/release

Видео
Идентификатор : 0
Формат : MPEG-4 Visual
Профиль формата : Advanced Simple@L5
Параметр BVOP формата : 1
Параметр QPel формата : Нет
Параметр GMC формата : Без точки перехода
Параметр матрицы формата : Default (MPEG)
Идентификатор кодека : XVID
Идентификатор кодека/Подсказка : XviD
Продолжительность : 2 ч. 4 м.
Битрейт : 1585 Кбит/сек
Ширина : 720 пикселей
Высота : 304 пикселя
Соотношение сторон : 2,35:1
Частота кадров : 23,976 кадра/сек
Цветовое пространство : YUV
Субдискретизация насыщенности : 4:2:0
Битовая глубина : 8 бит
Тип развёртки : Прогрессивная
Метод сжатия : С потерями
Бит/(Пиксели*Кадры) : 0.302
Размер потока : 1,38 Гбайт (63%)
Библиотека кодирования : XviD 1.2.1 (UTC 2008-12-04)

Аудио #1
Идентификатор : 1
Формат : AC-3
Формат/Информация : Audio Coding 3
Расширение режима : CM (complete main)
Идентификатор кодека : 2000
Продолжительность : 2 ч. 4 м.
Вид битрейта : Постоянный
Битрейт : 448 Кбит/сек
Каналы : 6 каналов
Расположение каналов : Front: L C R, Side: L R, LFE
Частота : 48,0 КГц
Битовая глубина : 16 бит
Метод сжатия : С потерями
Размер потока : 400 Мбайт (18%)
Выравнивание : Разделение по промежуткам
Продолжительность промежутка : 42 мс. (1,00 видеокадр)
Время предзагрузки промежутка : 500 мс.

Аудио #2
Идентификатор : 2
Формат : AC-3
Формат/Информация : Audio Coding 3
Расширение режима : CM (complete main)
Идентификатор кодека : 2000
Продолжительность : 2 ч. 4 м.
Вид битрейта : Постоянный
Битрейт : 448 Кбит/сек
Каналы : 6 каналов
Расположение каналов : Front: L C R, Side: L R, LFE
Частота : 48,0 КГц
Битовая глубина : 16 бит
Метод сжатия : С потерями
Размер потока : 400 Мбайт (18%)
Выравнивание : Разделение по промежуткам
Продолжительность промежутка : 42 мс. (1,00 видеокадр)
Время предзагрузки промежутка : 500 мс.
piratbit.org



Скачать Молодость без молодости через торрент http://pic.kartinco.top/images/2012/liuafqy5wl.png Скачать фильм Молодость без молодости через торрент бесплантно в хорошем качестве Описание: Фильм рассказывает историю профессора лингвистики, который, не сумев завершить труд всей своей жизни, принимает решение о ... 4.8 10 5
Info! Золотая раздача, скачанное не засчитывается.
Торрент: Зарегистрирован [2012-03-24 16:46] · скачан: 26 раз
Статус: √ проверено
Размер: 2.18 GB
Как cкачать? Как скачать Молодость без молодости через торрент | qTorrent

% Раздел Тема Автор DL S | L
Фильмы 2006-2008 [ 1.37 GB ] Молодость без молодости / Youth Without Youth [2007 DVDRip] -=Cherry=- Скачать
1 | 0
Порно фильмы с сюжетом [ 1.74 GB ] Days without Youth / День без молодости [Release date:30 Jul 2010 All sexlesbo DVDRip] Shmel Скачать
1 | 0

28-11-2019 20:33  

Отключить всю рекламу на сайте

    Дорогой пользователь! Огромная просьба, поблагодарите релизера, оцените раздачу и оставьте свои комментарий, если Вы скачали Молодость без молодости через торрент бесплатно! Внесите свою лепту в развитие PiratBit!
    Комментировать посты могут только пользователи прошедшие не сложную регистрацию
    Показать сообщения:    

    Молодость без молодости через торрент
    Скачать бесплатно Молодость без молодости
    Молодость без молодости скачать торрент
    Молодость без молодости смотреть онлайн
    Cкачать фильм Молодость без молодости бесплатно
    Молодость без молодости скачать торрент в хорошем качестве
    Молодость без молодости смотреть онлайн бесплатно в хорошем качестве


    Вы не можете начинать темы
    Вы не можете отвечать на сообщения
    Вы не можете редактировать свои сообщения
    Вы не можете удалять свои сообщения
    Вы не можете голосовать в опросах
    Вы не можете прикреплять файлы к сообщениям
    Вы можете скачивать файлы