Anonymous, добрый день, присоединяйтесь к нам в Telegram!, здесь всегда актуальный адрес сайта, оперативная поддержка и многое другое!

>

5.5

iTunes

7.4

iTunes

7.9

iTunes

1

7.7

1 сезон

6.8

iTunes

7.3

1 сезон

13

6.7

1 сезон

8.3

RePack

30

ULTIMATE

pack

9.9

Лицензия

ВАЖНО

ИГРА 18+

pack

7.3

RePack

MK11

7.7

RePack

jed

7.8

RePack

fifa19

8.5

RePack

RDR2

RePack

NEED FOR SPEED™ PAYBACK

4 сезон

9 сезон

Бесстыжие 9 сезон

Все сериалы

все сериалы на PB.wtf

RePack

FAR CRY 5

Anonymous, добрый день, мы катастрофически не успеваем собрать деньги на оплату серверов, помогите нам пожалуйста 5,10,15р., для нас важна любая помощь . В качестве благодарности мы отключим Вам всю рекламу на сайте (укажите свой ник в строку Ваше имя)!

×
  
Magnet ссылка

Следствие по телу / Body of Proof / Сезон: 01 / (Серии 01 - 09 из 09) (Кристин Мур, Нельсон МакКормик, Мэттью Гросс) [2011 г., драма, криминал, детектив, 720p WEB-DLRip] piratbit.org

Следствие по телу через торрент piratbit.org

Размер: 12.73 GB | Добавлен: 9 лет 7 мес. назад | Торрент скачан:14 раз
Смотреть онлайн Следствие по телу | Скачать    Ребята, помогите собрать деньги на оплату серверов!!!

27-03-2012 05:08 Следствие по телу Скачать торрент  

Следствие по телу / Body of Proof

Год выпуска: 2011
Страна: США
Жанр: драма, криминал, детектив
Продолжительность: 09х~00:41:00
Перевод: Дублированный + Оригинальная дорожка
Субтитры: Отсутствуют

Режиссер: Кристин Мур, Нельсон МакКормик, Мэттью Гросс
Продюссер: Кори Д. Миллер, Ричард Хейус, Пол Гэдд
Сценарий: Кристофер Мерфей, Мэттью В. Льюис, Эндрю Деттманн

Премьера в мире: 25 января 2011

Мировой рейтинг IMDB 6.80 (2 800)


В ролях: Дана Дилэйни, Джери Райан, Джон Кэрролл Линч, Николас Бишоп, Джеффри Аренд, Уинделл Миддлбрукс, Соня Сон, Мэри Мэтилин Маусер, Сюзанн Гиллис, Натали Келли, Светлана Репетина, Мария Цветкова-Овсянникова, Вадим Гущин, Владимир Маслаков, Андрей Лёвин

Описание: Когда ее карьера выдающегося нейрохирурга внезапно прервалась, доктор Меган Хант стала использовать свои блестящие знания в медицине для раскрытия преступлений. Каждый труп может многое рассказать, и доктор Хант обязательно все выяснит. Доктор Меган Хант была ведущим нейрохирургом, пока из-за автомобильной аварии ее карьера не оборвалась. И теперь, раз уж живым помочь она больше не в силах, она стала судмедэкспертом. И хотя свою работу она делает на отлично, репутация «сложного человека» преследует ее везде. Ее начальник пытается ее защищать, но она слишком часто наступает на больную мозоль. И хотя он, с ворчанием, все же признает ее медицинские способности, ее коллега, опытный детектив полиции Бад Моррис, вовсе не в восторге от методов Меган. К счастью, у доктора Хант все же есть несколько почитателей. Младшие судмедэксперты полагаются на ее опыт, а ее напарник, медицинский следователь Питер Данлэп, нормально воспринимает ее странное поведение. Может это потому, что он единственный, кто знает — сложность характера Хант частично вызвана чувством вины. Перед тем, как оставить нейрохирургию, Мэган случайно убила своего пациента. Прибавьте к этому тяжелый развод, в результате которого дочь-подросток осталась под опекунством отца, и вы получите рецепт одиночества. Что касается понимания мертвых, то тут доктору Хант нет равных. А вот в отношениях с живыми ей есть над чем работать.

Похожие раздачи: Следствие по телу
Канал АВС заказал в 1-м сезоне 13 серий. Права на их показ приобрели многие европейские страны, в том числе и Россия, которая их и показала. В США же показ сериала начался позже и серии показывали в другом порядке чем в России (такая практика показа нормальное явление для ТВ любой страны, учитывая, что каждая серия это законченное дело, то сути не меняет в какой последовательности их смотреть). Не уложившись с показом в сериальный сезон канал АВС объявил 1-й сезон законченным и состоящем из 9 серий. Таким образом, отснятые 4 эпизода пошли во 2-й сезон. Ну а тут как авторы сериала решают в какой последовательности их показать.
Примечание: В США канал ABC показал лишь 9 из отснятых 13 серий. Оставшиеся 4 серии будут транслироваться в рамках второго сезона.

Качество: 720p WEB-DLRip
Формат: MKV
Видео кодек: H.26x
Аудио кодек: AC3
Видео: AVC H264, 1280x720 (1.77:1), 23.976 fps, ~4014 kbps avg
Аудио#1: Русский: 48 kHz, AC3 Dolby Digital, 2/0 (L,R), ~192 kbps avg
Аудио#2: Английский: 48 kHz, AC3 Dolby Digital, 3/2 (L,C,R,l,r) + LFE ch, ~384 kbps avg

Общее
Уникальный идентификатор : 218537010544832258845993739403560660588 (0xA468B27F672DD0ED897FE59B96DEAE6C)
Полное имя : F:\Закачки\Sledstvie.Po.Telu.s.01.p.01-09.of.09.2011.WEB-DL.720p\Sledstvie.Po.Telu.s.01.p.01.of.09.2011.WEB-DL.720p.mkv
Формат : Matroska
Версия формата : Version 2
Размер файла : 1,40 Гбайт
Продолжительность : 43 м.
Общий поток : 4627 Кбит/сек
Дата кодирования : UTC 2011-03-31 21:29:01
Программа кодирования : mkvmerge v4.6.0 ('Still Crazy After All These Years') сборка от Mar 10 2011 02:50:32
Библиотека кодирования : libebml v1.2.0 + libmatroska v1.1.0

Видео
Идентификатор : 1
Формат : AVC
Формат/Информация : Advanced Video Codec
Профиль формата : High@L3.1
Параметр CABAC формата : Нет
Параметр ReFrames формата : 2 кадра
Идентификатор кодека : V_MPEG4/ISO/AVC
Продолжительность : 43 м.
Битрейт : 4014 Кбит/сек
Ширина : 1280 пикселей
Высота : 720 пикселей
Соотношение сторон : 16:9
Частота кадров : 23,976 кадра/сек
Цветовое пространство : YUV
Субдискретизация насыщенности : 4:2:0
Битовая глубина : 8 бит
Тип развёртки : Прогрессивная
Бит/(Пиксели*Кадры) : 0.179
Размер потока : 1,20 Гбайт (86%)
Заголовок : Body of Proof - Season 1, Episode 1: Pilot
Язык : English
Default : Да
Forced : Нет
Основные цвета : BT.709-5, BT.1361, IEC 61966-2-4, SMPTE RP177
Характеристики трансфера : BT.709-5, BT.1361
Коэффициенты матрицы : BT.709-5, BT.1361, IEC 61966-2-4 709, SMPTE RP177

Аудио #1
Идентификатор : 2
Формат : AC-3
Формат/Информация : Audio Coding 3
Расширение режима : CM (complete main)
Идентификатор кодека : A_AC3
Продолжительность : 43 м.
Вид битрейта : Постоянный
Битрейт : 192 Кбит/сек
Каналы : 2 канала
Расположение каналов : Front: L R
Частота : 48,0 КГц
Битовая глубина : 16 бит
Метод сжатия : С потерями
Размер потока : 59,6 Мбайт (4%)
Заголовок : Dolby Digital 2.0 @ 192 kbps
Язык : Russian
Default : Да
Forced : Нет

Аудио #2
Идентификатор : 3
Формат : AC-3
Формат/Информация : Audio Coding 3
Расширение режима : CM (complete main)
Идентификатор кодека : A_AC3
Продолжительность : 43 м.
Вид битрейта : Постоянный
Битрейт : 384 Кбит/сек
Каналы : 6 каналов
Расположение каналов : Front: L C R, Side: L R, LFE
Частота : 48,0 КГц
Битовая глубина : 16 бит
Метод сжатия : С потерями
Размер потока : 119 Мбайт (8%)
Заголовок : Dolby Digital 5.1 @ 384 kbps
Язык : English
Default : Нет
Forced : Нет
piratbit.org



Скачать Следствие по телу через торрент https://pic1.kartinco.top/images/2012/n4ufw9jfxe.jpg Скачать, смотреть онлайн Следствие по телу бесплантно в хорошем качестве Описание: Когда ее карьера выдающегося нейрохирурга внезапно прервалась, доктор Меган Хант стала использовать свои блестящие знания ... 5 10 2
Info! Золотая раздача, скачанное не засчитывается.
Торрент: Зарегистрирован [2012-03-27 05:08] · скачан: 14 раз
Статус: √ проверено
Размер: 12.73 GB
Как cкачать? Как скачать Следствие по телу через торрент | UTorrent

% Раздел Тема Автор DL S | L
Зарубежные сериалы [ 5.59 GB ] Следствие по телу / Body of Proof / 1 сезон [2011 SATRip] lyokaa Скачать
1 | 0
Зарубежные сериалы [ 15.35 GB ] Следствие по телу / Body of Proof / Сезон: 02 / [2011 720p WEB-DLRip] DJERG Скачать
1 | 0
Зарубежные сериалы [ 3.13 GB ] Следствие по телу / Body of Proof / Сезон: 2 / Серии: 1-8 из 20 [2011 WEB-DLRip] DUB Cherepp Скачать
1 | 0
Зарубежные сериалы [ 3.52 GB ] Следствие по телу / Body of Proof [Сезон: 1 эпизод 1-9 ] [Chris Murphey] [2011 WEB-DLRip] [NovaFilm] Romeo0502 Скачать
1 | 0

28-11-2019 20:33  

Отключить всю рекламу на сайте

    Дорогой пользователь! Огромная просьба, поблагодарите релизера, оцените раздачу и оставьте свои комментарий, если Вы скачали Следствие по телу через торрент бесплатно!
    Комментировать посты могут только пользователи прошедшие не сложную регистрацию
    Показать сообщения:    

    Следствие по телу через торрент
    Скачать бесплатно Следствие по телу
    Следствие по телу скачать торрент
    Следствие по телу смотреть онлайн
    Cкачать фильм Следствие по телу бесплатно
    Следствие по телу скачать торрент в хорошем качестве
    Следствие по телу смотреть онлайн бесплатно в хорошем качестве


    Вы не можете начинать темы
    Вы не можете отвечать на сообщения
    Вы не можете редактировать свои сообщения
    Вы не можете удалять свои сообщения
    Вы не можете голосовать в опросах
    Вы не можете прикреплять файлы к сообщениям
    Вы можете скачивать файлы