1 сезон

1 сезон

iTunes

1

КиноПоиск HD

Кинопоиск HD

iTunes

13

1 сезон

RePack

30

Deluxe

ВАЖНО

ИГРА 18+

pack

RePack

MK11
pack

Легкие деньги

RePack

jed

RePack

fifa19

RePack

RDR2

RePack

NEED FOR SPEED™ PAYBACK

4 сезон

9 сезон

Бесстыжие 9 сезон

Все сериалы

все сериалы на PB.wtf

RePack

FAR CRY 5
  
Magnet ссылка

Три икса / xXx (Роб Коэн) [2002, боевик, триллер, BDRip-AVC] DUB, MVO, DVO, 2хAVO piratbit.org

Три икса через торрент piratbit.org

Размер: 6.17 GB | Добавлен: 3 года 11 мес. назад | Торрент скачан:38 раз
Скачать  

31-03-2012 11:14 Три икса Скачать торрент  

Три икса / xXx Год выпуска: 2002
Страна: США
Жанр: боевик, триллер
Продолжительность: 02:04:06
Перевод#1: Профессиональный (дублированный)
Перевод#2: Профессиональный (многоголосый закадровый) | Киномания
Перевод#3: Профессиональный (двухголосый закадровый) (отдельно)
Перевод#4: Авторский (одноголосый закадровый), П. Гланц (отдельно)
Перевод#5: Авторский (одноголосый закадровый), Ю. Медведев (отдельно)
Субтитры: русские, английские

Режиссёр: Роб Коэн
В ролях: Вин Дизель, Азия Ардженто, Мартон Чокаш, Сэмюэл Л. Джексон, Майкл Руф, Том Эверетт, Дэнни Трехо, Томас Йен Гриффит, Ив, Лейла Арчери, Уильям Хоуп, Тед Мэйнард

Описание: Ксандер Кэйдж — спортсмен-экстремал. Этот человек не только выполняет уникальные смертельные трюки, но еще и записывает их на видео, размещая записи на одном из подпольных сайтов. Этот жестокий парень может сделать, то, что не в силах выполнить другие люди. Именно поэтому он привлекает к себе внимание одного из агентов Управления национальной безопасности. Агент Гиббонс вербует Кэйджа. Оснащенный самой современной шпионской техникой и оружием, Кэйдж должен просочится в русские криминальные круги, находящиеся в Праге. Ничто не может помешать этому шпиону нового поколения ХХХ выполнить свою миссию, и никто не способен отвлечь его от задания. Никто, кроме таинственной девушки Елены…..

Качество: BDRip-AVC
Формат: MKV
Видео кодек: х264
Аудио кодек: AC3
Видео: AVC 1150x478 (2.40:1), 23.976 fps, ~4500 Kbps, 0.34 bit/pixel
Аудио: Russian AC3 6ch 48kHz 448Kbps | Dub
Аудио: Russian AC3 6ch 48kHz 448Kbps | MVO Киномания
Аудио: English AC3 6ch 48kHz 448Kbps | Original
Аудио: Russian AC3 6ch 48kHz 384Kbps | DVO (отдельным файлом)
Аудио: Russian AC3 6ch 48kHz 448Kbps | AVO Гланц (отдельным файлом)
Аудио: Russian AC3 6ch 48kHz 448Kbps | AVO Медведев (отдельным файлом)
Общее
Уникальный идентификатор : 191127213554824192579225210769282374411 (0x8FC9C32B27D8CF47A51A943475D71B0B)
Полное имя : E:\xXx.2002.JPN.BDRip.x264.DD5.1.Rus.Eng-E76\xXx.2002.JPN.BDRip.x264.DD5.1.Rus.Eng-E76.mkv
Формат : Matroska
Версия формата : Version 2
Размер файла : 5,06 Гбайт
Продолжительность : 2 ч. 4 м.
Общий поток : 5834 Кбит/сек
Название фильма : xXx.2002.JPN.BDRip.x264.DD5.1.Rus.Eng-E76
Дата кодирования : UTC 2013-12-13 08:46:42
Программа кодирования : mkvmerge v6.5.0 ('Isn't she lovely') built on Oct 20 2013 12:50:05
Библиотека кодирования : libebml v1.3.0 + libmatroska v1.4.1

Видео
Идентификатор : 1
Формат : AVC
Формат/Информация : Advanced Video Codec
Профиль формата : High@L4.1
Параметр CABAC формата : Да
Параметр ReFrames формата : 12 кадров
Идентификатор кодека : V_MPEG4/ISO/AVC
Продолжительность : 2 ч. 4 м.
Битрейт : 4490 Кбит/сек
Ширина : 1150 пикселей
Высота : 478 пикселей
Соотношение сторон : 2,40:1
Режим частоты кадров : Постоянный
Частота кадров : 23,976 (24000/1001) кадра/сек
Цветовое пространство : YUV
Субдискретизация насыщенности : 4:2:0
Битовая глубина : 8 бит
Тип развёртки : Прогрессивная
Бит/(Пиксели*Кадры) : 0.341
Размер потока : 3,79 Гбайт (75%)
Заголовок : Encode by Enclave76
Библиотека кодирования : x264 core 138 r2358kMod 9e941d1
Настройки программы : cabac=1 / ref=12 / deblock=1:-3:-3 / analyse=0x3:0x113 / me=umh / subme=11 / psy=1 / fade_compensate=0.80 / psy_rd=1.00:0.00 / mixed_ref=1 / me_range=48 / chroma_me=1 / trellis=2 / 8x8dct=1 / cqm=0 / deadzone=21,11 / fast_pskip=0 / chroma_qp_offset=-2 / threads=6 / lookahead_threads=1 / sliced_threads=0 / nr=0 / decimate=0 / interlaced=0 / bluray_compat=0 / constrained_intra=0 / bframes=16 / b_pyramid=2 / b_adapt=2 / b_bias=0 / direct=3 / weightb=1 / open_gop=0 / weightp=2 / keyint=240 / keyint_min=23 / scenecut=40 / intra_refresh=0 / rc_lookahead=120 / rc=2pass / mbtree=1 / bitrate=4490 / ratetol=1.0 / qcomp=0.65 / qpmin=0 / qpmax=69 / qpstep=4 / cplxblur=20.0 / qblur=0.5 / vbv_maxrate=50000 / vbv_bufsize=62500 / nal_hrd=none / ip_ratio=1.40 / aq=1:0.80 / zones=168885,178493,q=30
Язык : English
Default : Нет
Forced : Нет
Цветовой диапазон : Limited
Коэффициенты матрицы : BT.709

Аудио #1
Идентификатор : 2
Формат : AC-3
Формат/Информация : Audio Coding 3
Параметр Endianness формата : Big
Идентификатор кодека : A_AC3
Продолжительность : 2 ч. 4 м.
Вид битрейта : Постоянный
Битрейт : 448 Кбит/сек
Каналы : 6 каналов
Расположение каналов : Front: L C R, Side: L R, LFE
Частота : 48,0 КГц
Частота кадров : 31,250 кадров/сек (1536 spf)
Битовая глубина : 16 бит
Метод сжатия : С потерями
Размер потока : 398 Мбайт (8%)
Заголовок : Dub
Язык : Russian
ServiceKind/String : Complete Main
Default : Да
Forced : Нет

Аудио #2
Идентификатор : 3
Формат : AC-3
Формат/Информация : Audio Coding 3
Параметр Endianness формата : Big
Идентификатор кодека : A_AC3
Продолжительность : 2 ч. 4 м.
Вид битрейта : Постоянный
Битрейт : 448 Кбит/сек
Каналы : 6 каналов
Расположение каналов : Front: L C R, Side: L R, LFE
Частота : 48,0 КГц
Частота кадров : 31,250 кадров/сек (1536 spf)
Битовая глубина : 16 бит
Метод сжатия : С потерями
Размер потока : 398 Мбайт (8%)
Заголовок : MVO Kinomania
Язык : Russian
ServiceKind/String : Complete Main
Default : Нет
Forced : Нет

Аудио #3
Идентификатор : 4
Формат : AC-3
Формат/Информация : Audio Coding 3
Параметр Endianness формата : Big
Идентификатор кодека : A_AC3
Продолжительность : 2 ч. 4 м.
Вид битрейта : Постоянный
Битрейт : 448 Кбит/сек
Каналы : 6 каналов
Расположение каналов : Front: L C R, Side: L R, LFE
Частота : 48,0 КГц
Частота кадров : 31,250 кадров/сек (1536 spf)
Битовая глубина : 16 бит
Метод сжатия : С потерями
Размер потока : 398 Мбайт (8%)
Заголовок : Original
Язык : English
ServiceKind/String : Complete Main
Default : Нет
Forced : Нет

Текст #1
Идентификатор : 5
Формат : UTF-8
Идентификатор кодека : S_TEXT/UTF8
Идентификатор кодека/Информация : UTF-8 Plain Text
Язык : Russian
Default : Нет
Forced : Нет

Текст #2
Идентификатор : 6
Формат : UTF-8
Идентификатор кодека : S_TEXT/UTF8
Идентификатор кодека/Информация : UTF-8 Plain Text
Язык : English
Default : Нет
Forced : Нет

Меню
00:00:00.000 : en:Chapter 1
00:03:41.763 : en:Chapter 2
00:05:40.423 : en:Chapter 3
00:10:05.438 : en:Chapter 4
00:12:29.415 : en:Chapter 5
00:19:22.370 : en:Chapter 6
00:21:51.810 : en:Chapter 7
00:23:59.396 : en:Chapter 8
00:27:51.044 : en:Chapter 9
00:32:27.779 : en:Chapter 10
00:34:19.391 : en:Chapter 11
00:42:18.828 : en:Chapter 12
00:45:49.163 : en:Chapter 13
00:50:25.648 : en:Chapter 14
00:57:10.385 : en:Chapter 15
01:01:16.298 : en:Chapter 16
01:04:33.828 : en:Chapter 17
01:12:01.192 : en:Chapter 18
01:14:50.236 : en:Chapter 19
01:17:43.075 : en:Chapter 20
01:20:59.521 : en:Chapter 21
01:26:36.108 : en:Chapter 22
01:32:44.559 : en:Chapter 23
01:38:05.463 : en:Chapter 24
01:39:01.227 : en:Chapter 25
01:44:08.951 : en:Chapter 26
01:45:57.017 : en:Chapter 27
01:49:40.616 : en:Chapter 28
piratbit.org



Скачать Три икса через торрент http://s002.youpic.su/pictures/1309550400/b6f0ae222e41db5a8bad9e767b96e147.png Скачать фильм Три икса через торрент бесплантно в хорошем качестве Описание: Ксандер Кэйдж — спортсмен-экстремал. Этот человек не только выполняет уникальные смертельные трюки, но еще и записывает их на ... 10 10 11
Торрент: Зарегистрирован [2017-06-05 16:58] · скачан: 38 раз
Статус: √ проверено
Размер: 6.17 GB
Как cкачать? Как скачать Три икса через торрент | UTorrent



Последний раз редактировалось: stalonе (2012-03-31 11:45), всего редактировалось 1 раз

28-11-2019 20:33  

Отключить всю рекламу на сайте

31-03-2012 11:35 Три икса Скачать торрент  

piratbit.org



31-03-2012 11:44 Три икса Скачать торрент  

Хотт@быч Спасибоpiratbit.org



05-06-2017 14:48 Три икса Скачать торрент  

Дайте скорости плизззpiratbit.org



    Дорогой пользователь! Огромная просьба, поблагодарите релизера, оцените раздачу и оставьте свои комментарий, если Вы скачали Три икса через торрент бесплатно! Внесите свою лепту в развитие PiratBit!
    Комментировать посты могут только пользователи прошедшие не сложную регистрацию
    Показать сообщения:    

    Три икса через торрент
    Скачать бесплатно Три икса
    Три икса скачать торрент
    Три икса смотреть онлайн
    Cкачать фильм Три икса бесплатно
    Три икса скачать торрент в хорошем качестве
    Три икса смотреть онлайн бесплатно в хорошем качестве


    Вы не можете начинать темы
    Вы не можете отвечать на сообщения
    Вы не можете редактировать свои сообщения
    Вы не можете удалять свои сообщения
    Вы не можете голосовать в опросах
    Вы не можете прикреплять файлы к сообщениям
    Вы можете скачивать файлы