Anonymous, добрый вечер, присоединяйтесь к нам в Telegram!, здесь всегда актуальный адрес сайта, оперативная поддержка и многое другое!

>

5.5

iTunes

7.4

iTunes

7.9

iTunes

1

7.7

1 сезон

6.8

iTunes

7.3

1 сезон

13

6.7

1 сезон

8.3

RePack

30

Deluxe

pack

9.9

Лицензия

ВАЖНО

ИГРА 18+

pack

7.3

RePack

MK11

7.7

RePack

jed

7.8

RePack

fifa19

8.5

RePack

RDR2

RePack

NEED FOR SPEED™ PAYBACK

4 сезон

9 сезон

Бесстыжие 9 сезон

Все сериалы

все сериалы на PB.wtf

RePack

FAR CRY 5

Anonymous, добрый вечер, мы катастрофически не успеваем собрать деньги на оплату серверов, помогите нам пожалуйста 5,10,15р., для нас важна любая помощь . В качестве благодарности мы отключим Вам всю рекламу на сайте (укажите свой ник в строку Ваше имя)!

×
  
Magnet ссылка

Биг Тайм Раш / Вперед - к успеху / Big Time Rush / Сезон: 1 (Серии: 1-21 из 21) (Джонатан Джадж, Сэвадж Стив Холлэнд, Дэвид Кендалл) [2010 г., мюзикл, комедия, WEB-DLRip, Дубляж] piratbit.org

Биг Тайм Раш через торрент piratbit.org

Размер: 5.8 GB | Добавлен: 9 лет 6 мес. назад | Торрент скачан:0 раз
Смотреть онлайн Биг Тайм Раш | Скачать    Ребята, помогите собрать деньги на оплату серверов!!!

06-04-2012 10:13 Биг Тайм Раш Скачать торрент  

Биг Тайм Раш / Вперед - к успеху / Big Time Rush

Год выпуска: 2010
Страна: США
Жанр: мюзикл, комедия
Продолжительность: 21 x ~00:24:00
Перевод: Профессиональный (полное дублирование)

Режиссер: Джонатан Джадж, Сэвадж Стив Холлэнд, Дэвид Кендалл

В ролях: Кендалл Шмидт, Джеймс Маслоу, Карлос Пенья, Логан Хендерсон, Сиара Браво, Стивен Крамер Гликмэн, Таня Чисхольм, Эрин Сэндерс, Чэллен Кэйт

Описание: Четыре лучших друга, 16-летние подростки из Миннесоты, Кендалл, Джеймс, Логан и Карлос, мечтают стать знаменитыми музыкантами. И неожиданно им выпадает шанс. Их приглашают в Лос-Анджелес, в городок юных талантов, где киностудии и студии звукозаписи временно селят одаренных молодых ребят, потенциальных кинозвезд и будущих "королей рока". Это история об обычных подростках, оказавшихся в необычной ситуации. История о настоящей дружбе, о тяжелой работе на пути к успеху, о победах и поражениях - и об исполнении самой заветной мечты.

Качество: WEB-DLRip
Формат: AVI
Видео кодек: XviD
Аудио кодек: AC3
Видео: 720x400 (1.80:1), 23.976 fps, XviD build 47 ~1499 kbps avg, 0.23 bit/pixel
Аудио: 48 kHz, AC3 Dolby Digital, 2/0 (L,R) ch, ~192.00 kbps avg
Релиз от:
Общее
Формат : AVI
Формат/Информация : Audio Video Interleave
Размер файла : 278 Мбайт
Продолжительность : 23 м.
Общий поток : 1650 Кбит/сек
Программа кодирования : VirtualDubModRus 1.5.10.1 (build 2439/release)
Библиотека кодирования : VirtualDubMod build 2439/release

Видео
Идентификатор : 0
Формат : MPEG-4 Visual
Профиль формата : Advanced Simple@L5
Параметр BVOP формата : 3
Параметр QPel формата : Нет
Параметр GMC формата : Без точки перехода
Параметр матрицы формата : Default (H.263)
Идентификатор кодека : XVID
Идентификатор кодека/Подсказка : XviD
Продолжительность : 23 м.
Битрейт : 1448 Кбит/сек
Ширина : 720 пикс.
Высота : 400 пикс.
Соотношение сторон : 16:9
Частота кадров : 23,976 кадр/сек
Цветовое пространство : YUV
Подвыборка цветности : 4:2:0
Битовая глубина : 8 бит
Тип развёртки : Прогрессивная
Метод сжатия : С потерями
Бит/(Пиксели*Кадры) : 0.210
Размер потока : 244 Мбайт (88%)
Библиотека кодирования : XviD 1.2.0.dev47 (UTC 2006-11-01)

Аудио
Идентификатор : 1
Формат : AC-3
Формат/Информация : Audio Coding 3
Расширение режима : CM (complete main)
Идентификатор кодека : 2000
Продолжительность : 23 м.
Вид битрейта : Постоянный
Битрейт : 192 Кбит/сек
Каналы : 2 канала
Расположение каналов : Front: L R
Частота : 48,0 КГц
Битовая глубина : 16 бит
Метод сжатия : С потерями
Размер потока : 32,4 Мбайт (12%)
Выравнивание : Разделение по промежуткам
Продолжительность промежутка : 42 мс. (1,00 видеокадр)
Время предзагрузки промежутка : 500 ms
piratbit.org



Скачать Биг Тайм Раш через торрент http://i27.fastpic.ru/big/2011/1020/6f/8d1e4991a8f64966833cea0d2250366f.jpg Скачать, смотреть онлайн Биг Тайм Раш бесплантно в хорошем качестве Описание: Четыре лучших друга, 16-летние подростки из Миннесоты, Кендалл, Джеймс, Логан и Карлос, мечтают стать знаменитыми музыкантами. И ... 5 10 1
Info! Золотая раздача, скачанное не засчитывается.
Торрент: Зарегистрирован [2012-04-06 10:13] · скачан: 0 раз
Статус: √ проверено
Размер: 5.8 GB
Как cкачать? Как скачать Биг Тайм Раш через торрент | UTorrent

28-11-2019 20:33  

Отключить всю рекламу на сайте

    Дорогой пользователь! Огромная просьба, поблагодарите релизера, оцените раздачу и оставьте свои комментарий, если Вы скачали Биг Тайм Раш через торрент бесплатно!
    Комментировать посты могут только пользователи прошедшие не сложную регистрацию
    Показать сообщения:    

    Биг Тайм Раш через торрент
    Скачать бесплатно Биг Тайм Раш
    Биг Тайм Раш скачать торрент
    Биг Тайм Раш смотреть онлайн
    Cкачать фильм Биг Тайм Раш бесплатно
    Биг Тайм Раш скачать торрент в хорошем качестве
    Биг Тайм Раш смотреть онлайн бесплатно в хорошем качестве


    Вы не можете начинать темы
    Вы не можете отвечать на сообщения
    Вы не можете редактировать свои сообщения
    Вы не можете удалять свои сообщения
    Вы не можете голосовать в опросах
    Вы не можете прикреплять файлы к сообщениям
    Вы можете скачивать файлы