Anonymous, добрый день, присоединяйтесь к нам в Telegram!, здесь всегда актуальный адрес сайта, оперативная поддержка и многое другое!

>

5.6

iTunes

7.4

iTunes

5.7

MVO

1

7.7

1 сезон

6.8

iTunes

7.3

1 сезон

13

6.7

1 сезон

8.3

RePack

30

ULTIMATE

pack

9.9

Лицензия

ВАЖНО

ИГРА 18+

pack

7.3

RePack

MK11

7.7

RePack

jed

7.8

RePack

fifa19

8.5

RePack

RDR2

RePack

NEED FOR SPEED™ PAYBACK

4 сезон

9 сезон

Бесстыжие 9 сезон

Все сериалы

все сериалы на PB.wtf

RePack

FAR CRY 5

Anonymous, добрый день, мы катастрофически не успеваем собрать деньги на оплату серверов, помогите нам пожалуйста 5,10,15р., для нас важна любая помощь . В качестве благодарности мы отключим Вам всю рекламу на сайте (укажите свой ник в строку Ваше имя)!

×
  
Magnet ссылка

Неудачник / Невезуха / Lead Balloon / Сезон: 1 (Серии: 1-6 из 6) (Алекс Хардкэсл) [2006 г., комедия, DVDRip, MVO] piratbit.org

Неудачник через торрент piratbit.org

Размер: 1.51 GB | Добавлен: 9 лет 6 мес. назад | Торрент скачан:0 раз
Смотреть онлайн Неудачник | Скачать    Ребята, помогите собрать деньги на оплату серверов!!!

06-04-2012 10:25 Неудачник Скачать торрент  

Неудачник / Невезуха / Lead Balloon

Год выпуска: 2006
Страна: Великобритания
Жанр: комедия
Продолжительность: 6 х ~00:28:00
Перевод: Профессиональный (многоголосый, закадровый) + оригинал

Режиссер: Алекс Хардкэсл

В ролях: Джек Ди (Jack Dee), Рэкуэл Кэссиди (Raquel Cassidy), Шон Пауэр (Sean Power), Анна Крилли (Anna Crilly), Антония Кэмпбелл-Хьюджес (Antonia Campbell-Hughes), Расмус Хардайкер (Rasmus Hardiker), Тони Гарднер (Tony Gardner) и др.

Описание: Главный герой сериала - мрачноватый актер "среднего размера". Его жизнь - сплошная череда мелких\средних\крупных неудач. Точнее - сплошь невезуха и непруха.

Качество: DVDRip
Формат: AVI
Видео кодек: XviD
Аудио кодек: MP3
Видео: 640x352 (16:9), 25 fps, XviD, ~962 Kbps avg, 0.171 bit/pixel
Аудио#1: 48.0 KHz, MP3 , 2 ch, ~128 Kbps (CBR) |rus|
Аудио#2: 48.0 KHz, MP3 , 2 ch, ~128 Kbps (CBR) |eng|

IMDb
Общее
Формат : AVI
Формат/Информация : Audio Video Interleave
Размер файла : 258 Мбайт
Продолжительность : 28 м.
Общий поток : 1248 Кбит/сек
Название фильма : Lead.balloon.s01e03.L5000
Режиссёр : sync RU:729 aka Jetsam
Жанр : Comedy
Тема : Lead.balloon.s01e03.L5000.DVDRip-HAGGiS.rus.eng.Jetsam.avi
Дата записи : *2012*
Программа кодирования : VirtualDubMod 1.5.10.2 (build 2542/release)
Библиотека кодирования : VirtualDubMod build 2542/release
Правообладатель : *BBC [UK]*
Примечание : пожалуйста - покупайте ЛИЦЕНЗИОННУЮ продукцию - поддержите любимых актеров!

Видео
Идентификатор : 0
Формат : MPEG-4 Visual
Профиль формата : Advanced Simple@L5
Параметр BVOP формата : 1
Параметр QPel формата : Нет
Параметр GMC формата : Без точки перехода
Параметр матрицы формата : Default (H.263)
Режим смешивания : Сжатый битовый поток
Идентификатор кодека : XVID
Идентификатор кодека/Подсказка : XviD
Продолжительность : 28 м.
Битрейт : 978 Кбит/сек
Ширина : 640 пикс.
Высота : 352 пикс.
Соотношение сторон : 16:9
Частота кадров : 25,000 кадр/сек
Цветовое пространство : YUV
Подвыборка цветности : 4:2:0
Битовая глубина : 8 бит
Тип развёртки : Прогрессивная
Метод сжатия : С потерями
Бит/(Пиксели*Кадры) : 0.174
Размер потока : 202 Мбайт (78%)
Библиотека кодирования : XviD 1.1.0 (UTC 2005-11-22)

Аудио #1
Идентификатор : 1
Формат : MPEG Audio
Версия формата : Version 1
Профиль формата : Layer 3
Идентификатор кодека : 55
Идентификатор кодека/Подсказка : MP3
Продолжительность : 28 м.
Вид битрейта : Постоянный
Битрейт : 128 Кбит/сек
Каналы : 2 канала
Частота : 48,0 КГц
Метод сжатия : С потерями
Размер потока : 26,4 Мбайт (10%)
Выравнивание : Соединение по промежуткам
Продолжительность промежутка : 40 мс. (1,00 видеокадр)
Время предзагрузки промежутка : 504 ms
Заголовок : Russian (RedMedia)

Аудио #2
Идентификатор : 2
Формат : MPEG Audio
Версия формата : Version 1
Профиль формата : Layer 3
Идентификатор кодека : 55
Идентификатор кодека/Подсказка : MP3
Продолжительность : 28 м.
Вид битрейта : Постоянный
Битрейт : 128 Кбит/сек
Каналы : 2 канала
Частота : 48,0 КГц
Метод сжатия : С потерями
Размер потока : 26,4 Мбайт (10%)
Выравнивание : Соединение по промежуткам
Продолжительность промежутка : 40 мс. (1,00 видеокадр)
Время предзагрузки промежутка : 504 ms
Заголовок : English
piratbit.org



Скачать Неудачник через торрент http://i29.fastpic.ru/big/2012/0403/3c/ba722c24ce1ba3da6d75e6635a74103c.png Скачать, смотреть онлайн Неудачник бесплантно в хорошем качестве Описание: Главный герой сериала - мрачноватый актер "среднего размера". Его жизнь - сплошная череда мелких\средних\крупных неудач. Точнее - ... 5 10 1
Info! Золотая раздача, скачанное не засчитывается.
Торрент: Зарегистрирован [2012-04-06 10:25] · скачан: 0 раз
Статус: √ проверено
Размер: 1.51 GB
Как cкачать? Как скачать Неудачник через торрент | UTorrent

28-11-2019 20:33  

Отключить всю рекламу на сайте

    Дорогой пользователь! Огромная просьба, поблагодарите релизера, оцените раздачу и оставьте свои комментарий, если Вы скачали Неудачник через торрент бесплатно!
    Комментировать посты могут только пользователи прошедшие не сложную регистрацию
    Показать сообщения:    

    Неудачник через торрент
    Скачать бесплатно Неудачник
    Неудачник скачать торрент
    Неудачник смотреть онлайн
    Cкачать фильм Неудачник бесплатно
    Неудачник скачать торрент в хорошем качестве
    Неудачник смотреть онлайн бесплатно в хорошем качестве


    Вы не можете начинать темы
    Вы не можете отвечать на сообщения
    Вы не можете редактировать свои сообщения
    Вы не можете удалять свои сообщения
    Вы не можете голосовать в опросах
    Вы не можете прикреплять файлы к сообщениям
    Вы можете скачивать файлы