Anonymous, добрый день, присоединяйтесь к нам в Telegram!, здесь всегда актуальный адрес сайта, оперативная поддержка и многое другое!

>

5.6

iTunes

7.4

iTunes

5.7

MVO

1

7.7

1 сезон

6.8

iTunes

7.3

1 сезон

13

6.7

1 сезон

8.3

RePack

30

ULTIMATE

pack

9.9

Лицензия

ВАЖНО

ИГРА 18+

pack

7.3

RePack

MK11

7.7

RePack

jed

7.8

RePack

fifa19

8.5

RePack

RDR2

RePack

NEED FOR SPEED™ PAYBACK

4 сезон

9 сезон

Бесстыжие 9 сезон

Все сериалы

все сериалы на PB.wtf

RePack

FAR CRY 5

Anonymous, добрый день, мы катастрофически не успеваем собрать деньги на оплату серверов, помогите нам пожалуйста 5,10,15р., для нас важна любая помощь . В качестве благодарности мы отключим Вам всю рекламу на сайте (укажите свой ник в строку Ваше имя)!

×
  
Magnet ссылка

Красотки в Кливленде / Hot in Cleveland / Сезон: 1-2 (Серии: 1-29) (Энди Кэдифф, Дэвид Трейнер, Джил Джангер) [2010 г., комедия, WEB-DLRip, Любительский (многоголосый, закадровый) + Оригинал] piratbit.org

Красотки в Кливленде через торрент piratbit.org

Размер: 7.25 GB | Добавлен: 9 лет 6 мес. назад | Торрент скачан:0 раз
Смотреть онлайн Красотки в Кливленде | Скачать    Ребята, помогите собрать деньги на оплату серверов!!!

06-04-2012 10:42 Красотки в Кливленде Скачать торрент  

Красотки в Кливленде / Hot in Cleveland

Год выпуска: 2010
Страна: США
Жанр: комедия
Продолжительность: 29 х ~00:21:00
Перевод: Любительский (многоголосый, закадровый) + Оригинал

Режиссер: Энди Кэдифф, Дэвид Трейнер, Джил Джангер

Описание: Разведённая писательница, бывшая звезда мыльной оперы и англичанка-косметолог - три эксцентричные лучшие подруги по пути из Лос-Анжелеса в Париж совершают экстренную посадку в Кливленде, где местные жители принимают их за неземных красоток. Теперь они должны решить: вернуться ли в Лос-Анжелес, где они уже "не в цене", или же остаться в городе, где они пользуются недюжинным успехом.

Качество: WEB-DLRip
Формат: AVI
Видео кодек: XviD
Аудио кодек: MP3

Видео: 640x480 (1.33:1), 23.976 fps, XviD MPEG-4 ~1277 kbps avg, 0.17 bit/pixel
Аудио#1: 48 kHz, MPEG Layer 3, 2 ch, ~128.00 kbps avg |rus|
Аудио#2: 44.100 kHz, MPEG Layer 3, 2 ch, ~128.00 kbps avg |eng|
Видео: 720x400 (1.80:1), 23.976 fps, XviD MPEG-4 ~1279 kbps avg, 0.19 bit/pixel
Аудио#1: 48 kHz, MPEG Layer 3, 2 ch, ~192.00 kbps avg |rus|
Аудио#2: 48 kHz, MPEG Layer 3, 2 ch, ~192.00 kbps avg |eng|
Общее (1 сезон)
Формат : AVI
Формат/Информация : Audio Video Interleave
Размер файла : 236 Мбайт
Продолжительность : 21 м.
Общий поток : 1549 Кбит/сек
Программа кодирования : VirtualDubMod 1.5.10.2 (build 2540/release)
Библиотека кодирования : VirtualDubMod build 2540/release

Видео
Идентификатор : 0
Формат : MPEG-4 Visual
Профиль формата : Advanced Simple@L5
Параметр BVOP формата : 2
Параметр QPel формата : Нет
Параметр GMC формата : Без точки перехода
Параметр матрицы формата : Default (H.263)
Режим смешивания : Сжатый битовый поток
Идентификатор кодека : XVID
Идентификатор кодека/Подсказка : XviD
Продолжительность : 21 м.
Битрейт : 1279 Кбит/сек
Ширина : 640 пикс.
Высота : 480 пикс.
Соотношение сторон : 4:3
Частота кадров : 23,976 кадр/сек
Цветовое пространство : YUV
Подвыборка цветности : 4:2:0
Битовая глубина : 8 бит
Тип развёртки : Прогрессивная
Метод сжатия : С потерями
Бит/(Пиксели*Кадры) : 0.174
Размер потока : 195 Мбайт (83%)
Библиотека кодирования : XviD 1.2.1 (UTC 2008-12-04)

Аудио #1
Идентификатор : 1
Формат : MPEG Audio
Версия формата : Version 1
Профиль формата : Layer 3
Режим : Joint stereo
Расширение режима : MS Stereo
Идентификатор кодека : 55
Идентификатор кодека/Подсказка : MP3
Продолжительность : 21 м.
Вид битрейта : Постоянный
Битрейт : 128 Кбит/сек
Каналы : 2 канала
Частота : 48,0 КГц
Метод сжатия : С потерями
Размер потока : 19,5 Мбайт (8%)
Выравнивание : Соединение по промежуткам
Продолжительность промежутка : 42 мс. (1,00 видеокадр)
Время предзагрузки промежутка : 504 ms

Аудио #2
Идентификатор : 2
Формат : MPEG Audio
Версия формата : Version 1
Профиль формата : Layer 3
Режим : Joint stereo
Расширение режима : MS Stereo
Идентификатор кодека : 55
Идентификатор кодека/Подсказка : MP3
Продолжительность : 21 м.
Вид битрейта : Постоянный
Битрейт : 128 Кбит/сек
Каналы : 2 канала
Частота : 44,1 КГц
Метод сжатия : С потерями
Размер потока : 19,5 Мбайт (8%)
Выравнивание : Разделение по промежуткам
Продолжительность промежутка : 42 мс. (1,00 видеокадр)
Время предзагрузки промежутка : 500 ms

Общее (2 сезон)
Формат : AVI
Формат/Информация : Audio Video Interleave
Размер файла : 257 Мбайт
Продолжительность : 21 м.
Общий поток : 1678 Кбит/сек
Программа кодирования : VirtualDubMod 1.5.10.2 (build 2540/release)
Библиотека кодирования : VirtualDubMod build 2540/release

Видео
Идентификатор : 0
Формат : MPEG-4 Visual
Профиль формата : Advanced Simple@L5
Параметр BVOP формата : 2
Параметр QPel формата : Нет
Параметр GMC формата : Без точки перехода
Параметр матрицы формата : Default (H.263)
Режим смешивания : Сжатый битовый поток
Идентификатор кодека : XVID
Идентификатор кодека/Подсказка : XviD
Продолжительность : 21 м.
Битрейт : 1280 Кбит/сек
Ширина : 720 пикс.
Высота : 400 пикс.
Соотношение сторон : 16:9
Частота кадров : 23,976 кадр/сек
Цветовое пространство : YUV
Подвыборка цветности : 4:2:0
Битовая глубина : 8 бит
Тип развёртки : Прогрессивная
Метод сжатия : С потерями
Бит/(Пиксели*Кадры) : 0.185
Размер потока : 196 Мбайт (76%)
Библиотека кодирования : XviD 1.2.1 (UTC 2008-12-04)

Аудио #1
Идентификатор : 1
Формат : MPEG Audio
Версия формата : Version 1
Профиль формата : Layer 3
Режим : Joint stereo
Идентификатор кодека : 55
Идентификатор кодека/Подсказка : MP3
Продолжительность : 21 м.
Вид битрейта : Постоянный
Битрейт : 192 Кбит/сек
Каналы : 2 канала
Частота : 48,0 КГц
Метод сжатия : С потерями
Размер потока : 29,4 Мбайт (11%)
Выравнивание : Соединение по промежуткам
Продолжительность промежутка : 42 мс. (1,00 видеокадр)
Время предзагрузки промежутка : 504 ms

Аудио #2
Идентификатор : 2
Формат : MPEG Audio
Версия формата : Version 1
Профиль формата : Layer 3
Режим : Joint stereo
Идентификатор кодека : 55
Идентификатор кодека/Подсказка : MP3
Продолжительность : 21 м.
Вид битрейта : Постоянный
Битрейт : 192 Кбит/сек
Каналы : 2 канала
Частота : 48,0 КГц
Метод сжатия : С потерями
Размер потока : 29,4 Мбайт (11%)
Выравнивание : Соединение по промежуткам
Продолжительность промежутка : 42 мс. (1,00 видеокадр)
Время предзагрузки промежутка : 504 ms
Библиотека кодирования : LAME3.98.2
piratbit.org



Скачать Красотки в Кливленде через торрент http://i10.fastpic.ru/big/2010/1015/be/e046c2e4ed17ffc0c4390a4235360abe.png Скачать, смотреть онлайн Красотки в Кливленде бесплантно в хорошем качестве Описание: Разведённая писательница, бывшая звезда мыльной оперы и англичанка-косметолог - три эксцентричные лучшие подруги по пути из ... 5 10 2
Info! Золотая раздача, скачанное не засчитывается.
Торрент: Зарегистрирован [2012-04-06 10:42] · скачан: 0 раз
Статус: √ проверено
Размер: 7.25 GB
Как cкачать? Как скачать Красотки в Кливленде через торрент | UTorrent

28-11-2019 20:33  

Отключить всю рекламу на сайте

    Дорогой пользователь! Огромная просьба, поблагодарите релизера, оцените раздачу и оставьте свои комментарий, если Вы скачали Красотки в Кливленде через торрент бесплатно!
    Комментировать посты могут только пользователи прошедшие не сложную регистрацию
    Показать сообщения:    

    Красотки в Кливленде через торрент
    Скачать бесплатно Красотки в Кливленде
    Красотки в Кливленде скачать торрент
    Красотки в Кливленде смотреть онлайн
    Cкачать фильм Красотки в Кливленде бесплатно
    Красотки в Кливленде скачать торрент в хорошем качестве
    Красотки в Кливленде смотреть онлайн бесплатно в хорошем качестве


    Вы не можете начинать темы
    Вы не можете отвечать на сообщения
    Вы не можете редактировать свои сообщения
    Вы не можете удалять свои сообщения
    Вы не можете голосовать в опросах
    Вы не можете прикреплять файлы к сообщениям
    Вы можете скачивать файлы