Anonymous, добрый вечер, присоединяйтесь к нам в Telegram!, здесь всегда актуальный адрес сайта, оперативная поддержка и многое другое!

>

5.6

iTunes

7.4

iTunes

5.7

MVO

1

7.7

1 сезон

6.8

iTunes

7.3

1 сезон

13

6.7

1 сезон

8.3

RePack

30

ULTIMATE

pack

9.9

Лицензия

ВАЖНО

ИГРА 18+

pack

7.3

RePack

MK11

7.7

RePack

jed

7.8

RePack

fifa19

8.5

RePack

RDR2

RePack

NEED FOR SPEED™ PAYBACK

4 сезон

9 сезон

Бесстыжие 9 сезон

Все сериалы

все сериалы на PB.wtf

RePack

FAR CRY 5

Anonymous, добрый вечер, мы катастрофически не успеваем собрать деньги на оплату серверов, помогите нам пожалуйста 5,10,15р., для нас важна любая помощь . В качестве благодарности мы отключим Вам всю рекламу на сайте (укажите свой ник в строку Ваше имя)!

×
  
Magnet ссылка

Правила совместной жизни / Rules of Engagement / Сезон: 1-2 (Серии: 1-22) (Тед Уасс, Гэйл Манкусо, Джон Пасквин) [2007 г., комедия, DVDRip, Профессиональный (многоголосый закадровый) + Оригинал] piratbit.org

Правила совместной жизни через торрент piratbit.org

Размер: 4.21 GB | Добавлен: 9 лет 6 мес. назад | Торрент скачан:1 раз
Смотреть онлайн Правила совместной жизни | Скачать    Ребята, помогите собрать деньги на оплату серверов!!!

06-04-2012 10:54 Правила совместной жизни Скачать торрент  

Правила совместной жизни / Rules of Engagement

Год выпуска: 2007
Страна: США
Жанр: комедия
Продолжительность: 22 х ~00:20:00
Перевод: Профессиональный (многоголосый закадровый) + Оригинал

Режиссер: Тед Уасс, Гэйл Манкусо, Джон Пасквин

В ролях: Patrick Warburton, Megyn Price, Oliver Hudson, Bianca Kajlich, David Spade

Описание: Сериал о соседях по лестничной площадке, двух парах. Одна пара — женаты уже 15 лет, другая — только съехались вместе. Они общаются между собой и делятся впечатлениями о совместной жизни. Пятый персонаж — убеждённый холостяк.

Качество: DVDRip
Формат: AVI
Видео кодек: XviD
Аудио кодек: MP3

Видео: 640x352 (1.82:1), 23.976 fps, XviD MPEG-4 ~988 kbps avg, 0.18 bit/pixel
Аудио#1: 48 kHz, MPEG Layer 3, 2 ch, ~128.00 kbps avg |rus|
Аудио#2: 48 kHz, MPEG Layer 3, 2 ch, ~131.03 kbps avg |eng|
Видео: 672x368 (1.83:1), 23.976 fps, XviD MPEG-4 ~1012 kbps avg, 0.17 bit/pixel
Аудио#1: 48 kHz, MPEG Layer 3, 2 ch, ~128.00 kbps avg |rus|
Аудио#2: 48 kHz, MPEG Layer 3, 2 ch, ~121.14 kbps avg |eng|
Общее (1 сезон)
Формат : AVI
Формат/Информация : Audio Video Interleave
Размер файла : 196 Мбайт
Продолжительность : 21 м.
Общий поток : 1266 Кбит/сек
Программа кодирования : VirtualDubMod 1.5.10.2 (build 2540/release)
Библиотека кодирования : VirtualDubMod build 2540/release

Видео
Идентификатор : 0
Формат : MPEG-4 Visual
Профиль формата : Advanced Simple@L5
Параметр BVOP формата : 1
Параметр QPel формата : Нет
Параметр GMC формата : Без точки перехода
Параметр матрицы формата : Default (H.263)
Режим смешивания : Сжатый битовый поток
Идентификатор кодека : XVID
Идентификатор кодека/Подсказка : XviD
Продолжительность : 21 м.
Битрейт : 987 Кбит/сек
Ширина : 640 пикс.
Высота : 352 пикс.
Соотношение сторон : 16:9
Частота кадров : 23,976 кадр/сек
Цветовое пространство : YUV
Подвыборка цветности : 4:2:0
Битовая глубина : 8 бит
Тип развёртки : Прогрессивная
Метод сжатия : С потерями
Бит/(Пиксели*Кадры) : 0.183
Размер потока : 152 Мбайт (78%)
Библиотека кодирования : XviD 1.1.2 (UTC 2006-11-01)

Аудио #1
Идентификатор : 1
Формат : MPEG Audio
Версия формата : Version 1
Профиль формата : Layer 3
Режим : Joint stereo
Расширение режима : MS Stereo
Идентификатор кодека : 55
Идентификатор кодека/Подсказка : MP3
Продолжительность : 21 м.
Вид битрейта : Постоянный
Битрейт : 128 Кбит/сек
Каналы : 2 канала
Частота : 48,0 КГц
Метод сжатия : С потерями
Размер потока : 19,8 Мбайт (10%)
Выравнивание : Соединение по промежуткам
Продолжительность промежутка : 42 мс. (1,00 видеокадр)
Время предзагрузки промежутка : 504 ms

Аудио #2
Идентификатор : 2
Формат : MPEG Audio
Версия формата : Version 1
Профиль формата : Layer 3
Режим : Joint stereo
Расширение режима : MS Stereo
Идентификатор кодека : 55
Идентификатор кодека/Подсказка : MP3
Продолжительность : 21 м.
Вид битрейта : Переменный
Битрейт : 128 Кбит/сек
Каналы : 2 канала
Частота : 48,0 КГц
Метод сжатия : С потерями
Размер потока : 20,6 Мбайт (11%)
Выравнивание : Соединение по промежуткам
Продолжительность промежутка : 24 мс. (0,58 видеокадр)
Время предзагрузки промежутка : 142 ms
Библиотека кодирования : LAME3.96r
Настройки программы : -m j -V 4 -q 3 -lowpass 17.5 --abr 128

Общее (2 сезон)
Формат : AVI
Формат/Информация : Audio Video Interleave
Размер файла : 195 Мбайт
Продолжительность : 21 м.
Общий поток : 1280 Кбит/сек
Программа кодирования : VirtualDubMod 1.5.10.2 (build 2540/release)
Библиотека кодирования : VirtualDubMod build 2540/release

Видео
Идентификатор : 0
Формат : MPEG-4 Visual
Профиль формата : Advanced Simple@L5
Параметр BVOP формата : 2
Параметр QPel формата : Нет
Параметр GMC формата : Без точки перехода
Параметр матрицы формата : Default (MPEG)
Режим смешивания : Сжатый битовый поток
Идентификатор кодека : XVID
Идентификатор кодека/Подсказка : XviD
Продолжительность : 21 м.
Битрейт : 1014 Кбит/сек
Ширина : 672 пикс.
Высота : 368 пикс.
Соотношение сторон : 16:9
Частота кадров : 23,976 кадр/сек
Цветовое пространство : YUV
Подвыборка цветности : 4:2:0
Битовая глубина : 8 бит
Тип развёртки : Прогрессивная
Метод сжатия : С потерями
Бит/(Пиксели*Кадры) : 0.171
Размер потока : 155 Мбайт (79%)
Библиотека кодирования : XviD 1.2.0.dev47 (UTC 2006-11-01)

Аудио #1
Идентификатор : 1
Формат : MPEG Audio
Версия формата : Version 1
Профиль формата : Layer 3
Режим : Joint stereo
Расширение режима : MS Stereo
Идентификатор кодека : 55
Идентификатор кодека/Подсказка : MP3
Продолжительность : 21 м.
Вид битрейта : Постоянный
Битрейт : 128 Кбит/сек
Каналы : 2 канала
Частота : 48,0 КГц
Метод сжатия : С потерями
Размер потока : 19,5 Мбайт (10%)
Выравнивание : Соединение по промежуткам
Продолжительность промежутка : 42 мс. (1,00 видеокадр)
Время предзагрузки промежутка : 504 ms

Аудио #2
Идентификатор : 2
Формат : MPEG Audio
Версия формата : Version 1
Профиль формата : Layer 3
Режим : Joint stereo
Расширение режима : MS Stereo
Идентификатор кодека : 55
Идентификатор кодека/Подсказка : MP3
Продолжительность : 21 м.
Вид битрейта : Переменный
Битрейт : 121 Кбит/сек
Каналы : 2 канала
Частота : 48,0 КГц
Метод сжатия : С потерями
Размер потока : 18,5 Мбайт (9%)
Выравнивание : Соединение по промежуткам
Продолжительность промежутка : 24 мс. (0,58 видеокадр)
Время предзагрузки промежутка : 152 ms
Библиотека кодирования : LAME3.93
Настройки программы : -m j -V 1 -q 2 -lowpass 19.5 --vbr-new
piratbit.org



Скачать Правила совместной жизни через торрент http://i3.fastpic.ru/big/2009/1023/3f/b7b5002cff0ac171506895476f1a313f.jpg Скачать, смотреть онлайн Правила совместной жизни бесплантно в хорошем качестве Описание: Сериал о соседях по лестничной площадке, двух парах. Одна пара — женаты уже 15 лет, другая — только съехались вместе. Они ... 5 10 1
Info! Золотая раздача, скачанное не засчитывается.
Торрент: Зарегистрирован [2012-04-06 10:54] · скачан: 1 раз
Статус: √ проверено
Размер: 4.21 GB
Как cкачать? Как скачать Правила совместной жизни через торрент | UTorrent

28-11-2019 20:33  

Отключить всю рекламу на сайте

    Дорогой пользователь! Огромная просьба, поблагодарите релизера, оцените раздачу и оставьте свои комментарий, если Вы скачали Правила совместной жизни через торрент бесплатно!
    Комментировать посты могут только пользователи прошедшие не сложную регистрацию
    Показать сообщения:    

    Правила совместной жизни через торрент
    Скачать бесплатно Правила совместной жизни
    Правила совместной жизни скачать торрент
    Правила совместной жизни смотреть онлайн
    Cкачать фильм Правила совместной жизни бесплатно
    Правила совместной жизни скачать торрент в хорошем качестве
    Правила совместной жизни смотреть онлайн бесплатно в хорошем качестве


    Вы не можете начинать темы
    Вы не можете отвечать на сообщения
    Вы не можете редактировать свои сообщения
    Вы не можете удалять свои сообщения
    Вы не можете голосовать в опросах
    Вы не можете прикреплять файлы к сообщениям
    Вы можете скачивать файлы