Anonymous, доброй ночи, присоединяйтесь к нам в Telegram!, здесь всегда актуальный адрес сайта, оперативная поддержка и многое другое!

>

5.5

iTunes

7.4

iTunes

7.9

iTunes

1

7.7

1 сезон

6.8

iTunes

7.3

1 сезон

13

6.7

1 сезон

8.3

RePack

30

ULTIMATE

pack

9.9

Лицензия

ВАЖНО

ИГРА 18+

pack

7.3

RePack

MK11

7.7

RePack

jed

7.8

RePack

fifa19

8.5

RePack

RDR2

RePack

NEED FOR SPEED™ PAYBACK

4 сезон

9 сезон

Бесстыжие 9 сезон

Все сериалы

все сериалы на PB.wtf

RePack

FAR CRY 5

Anonymous, доброй ночи, мы катастрофически не успеваем собрать деньги на оплату серверов, помогите нам пожалуйста 5,10,15р., для нас важна любая помощь . В качестве благодарности мы отключим Вам всю рекламу на сайте (укажите свой ник в строку Ваше имя)!

×
  
Magnet ссылка

Билли Ингвал / The Bill Engvall Show / Сезон: 1 (Серии: 1-8 из 8) (Джеймс Уиддоуз) [2007 г., ситком, DVDRip, Профессиональный (многоголосый закадровый) + Оригинал] piratbit.org

Билли Ингвал через торрент piratbit.org

Размер: 1.53 GB | Добавлен: 9 лет 6 мес. назад | Торрент скачан:2 раза
Смотреть онлайн Билли Ингвал | Скачать    Ребята, помогите собрать деньги на оплату серверов!!!

06-04-2012 11:03 Билли Ингвал Скачать торрент  

Билли Ингвал / The Bill Engvall Show

Год выпуска: 2007
Страна: США
Жанр: ситком
Продолжительность: 8 х ~00:21:00
Перевод: Профессиональный (многоголосый закадровый) + Оригинал

Режиссер: Джеймс Уиддоуз

В ролях: Грэхэм Патрик Мартин, Скайлер Джизондо, Билл Ингвал, Нэнси Трэвис, Дженнифер Лоуренс, Тим Медоуз, Стив Хитнер, Брайан Дойл-Мюррей, Стивен Данэм, Джун Скуиб

Описание: В семье психотерапевта Билла Энгвалла каждый день происходит что-нибудь интересное. Жена и трое детей приносят в дом частицу своей жизни, и Билл просто обязан быть в курсе всех событий и принять в них самое активное участие.

Качество: DVDRip
Формат: AVI
Видео кодек: XviD
Аудио кодек: MP3
Видео: 512x384 (1.33:1), 23.976 fps, XviD MPEG-4 ~956 kbps avg, 0.20 bit/pixel
Аудио#1: 48 kHz, MPEG Layer 3, 2 ch, ~128.00 kbps avg |rus|
Аудио#2: 48 kHz, MPEG Layer 3, 2 ch, ~133.54 kbps avg |eng|

Общее (DVDRip)
Формат : AVI
Формат/Информация : Audio Video Interleave
Размер файла : 196 Мбайт
Продолжительность : 22 м.
Общий поток : 1237 Кбит/сек
Программа кодирования : VirtualDubMod 1.6.0.0 SURROUND (build 2560/release)
Библиотека кодирования : VirtualDubMod build 2560/release

Видео
Идентификатор : 0
Формат : MPEG-4 Visual
Профиль формата : Advanced Simple@L5
Параметр BVOP формата : 1
Параметр QPel формата : Нет
Параметр GMC формата : Без точки перехода
Параметр матрицы формата : Default (H.263)
Режим смешивания : Сжатый битовый поток
Идентификатор кодека : XVID
Идентификатор кодека/Подсказка : XviD
Продолжительность : 22 м.
Битрейт : 958 Кбит/сек
Ширина : 512 пикс.
Высота : 384 пикс.
Соотношение сторон : 4:3
Частота кадров : 23,976 кадр/сек
Цветовое пространство : YUV
Подвыборка цветности : 4:2:0
Битовая глубина : 8 бит
Тип развёртки : Прогрессивная
Метод сжатия : С потерями
Бит/(Пиксели*Кадры) : 0.203
Размер потока : 152 Мбайт (77%)
Библиотека кодирования : XviD 1.2.0.dev47 (UTC 2006-11-01)

Аудио #1
Идентификатор : 1
Формат : MPEG Audio
Версия формата : Version 1
Профиль формата : Layer 3
Идентификатор кодека : 55
Идентификатор кодека/Подсказка : MP3
Продолжительность : 22 м.
Вид битрейта : Постоянный
Битрейт : 128 Кбит/сек
Каналы : 2 канала
Частота : 48,0 КГц
Метод сжатия : С потерями
Размер потока : 20,3 Мбайт (10%)
Выравнивание : Соединение по промежуткам
Продолжительность промежутка : 42 мс. (1,00 видеокадр)
Время предзагрузки промежутка : 504 ms
Язык : English

Аудио #2
Идентификатор : 2
Формат : MPEG Audio
Версия формата : Version 1
Профиль формата : Layer 3
Режим : Joint stereo
Идентификатор кодека : 55
Идентификатор кодека/Подсказка : MP3
Продолжительность : 22 м.
Вид битрейта : Переменный
Битрейт : 134 Кбит/сек
Каналы : 2 канала
Частота : 48,0 КГц
Метод сжатия : С потерями
Размер потока : 21,2 Мбайт (11%)
Выравнивание : Соединение по промежуткам
Продолжительность промежутка : 24 мс. (0,58 видеокадр)
Время предзагрузки промежутка : 120 ms
Библиотека кодирования : LAME3.97

Общее (SATRip)
Формат : AVI
Формат/Информация : Audio Video Interleave
Размер файла : 196 Мбайт
Продолжительность : 21 м.
Общий поток : 1252 Кбит/сек
Программа кодирования : VirtualDubMod 1.6.0.0 SURROUND (build 2560/release)
Библиотека кодирования : VirtualDubMod build 2560/release

Видео
Идентификатор : 0
Формат : MPEG-4 Visual
Профиль формата : Advanced Simple@L5
Параметр BVOP формата : 2
Параметр QPel формата : Нет
Параметр GMC формата : Без точки перехода
Параметр матрицы формата : Default (H.263)
Режим смешивания : Сжатый битовый поток
Идентификатор кодека : XVID
Идентификатор кодека/Подсказка : XviD
Продолжительность : 21 м.
Битрейт : 982 Кбит/сек
Ширина : 512 пикс.
Высота : 384 пикс.
Соотношение сторон : 4:3
Частота кадров : 23,976 кадр/сек
Цветовое пространство : YUV
Подвыборка цветности : 4:2:0
Битовая глубина : 8 бит
Тип развёртки : Прогрессивная
Метод сжатия : С потерями
Бит/(Пиксели*Кадры) : 0.208
Размер потока : 153 Мбайт (78%)
Библиотека кодирования : XviD 1.2.0.dev47 (UTC 2006-11-01)

Аудио #1
Идентификатор : 1
Формат : MPEG Audio
Версия формата : Version 1
Профиль формата : Layer 3
Идентификатор кодека : 55
Идентификатор кодека/Подсказка : MP3
Продолжительность : 21 м.
Вид битрейта : Постоянный
Битрейт : 128 Кбит/сек
Каналы : 2 канала
Частота : 48,0 КГц
Метод сжатия : С потерями
Размер потока : 20,0 Мбайт (10%)
Выравнивание : Соединение по промежуткам
Продолжительность промежутка : 42 мс. (1,00 видеокадр)
Время предзагрузки промежутка : 504 ms

Аудио #2
Идентификатор : 2
Формат : MPEG Audio
Версия формата : Version 1
Профиль формата : Layer 3
Режим : Joint stereo
Расширение режима : MS Stereo
Идентификатор кодека : 55
Идентификатор кодека/Подсказка : MP3
Продолжительность : 21 м.
Вид битрейта : Переменный
Битрейт : 128 Кбит/сек
Каналы : 2 канала
Частота : 48,0 КГц
Метод сжатия : С потерями
Размер потока : 19,4 Мбайт (10%)
Выравнивание : Соединение по промежуткам
Продолжительность промежутка : 24 мс. (0,58 видеокадр)
Время предзагрузки промежутка : 546 ms
Библиотека кодирования : LAME3.90.
Настройки программы : -m j -V 4 -q 2 -lowpass 17.6 --abr 128
piratbit.org



Скачать Билли Ингвал через торрент http://i32.fastpic.ru/big/2012/0214/9b/a005b4d439571baa355cc6134a8fae9b.jpg Скачать, смотреть онлайн Билли Ингвал бесплантно в хорошем качестве Описание: В семье психотерапевта Билла Энгвалла каждый день происходит что-нибудь интересное. Жена и трое детей приносят в дом частицу ... 5 10 1
Info! Золотая раздача, скачанное не засчитывается.
Торрент: Зарегистрирован [2012-04-06 11:03] · скачан: 2 раз
Статус: √ проверено
Размер: 1.53 GB
Как cкачать? Как скачать Билли Ингвал через торрент | UTorrent

28-11-2019 20:33  

Отключить всю рекламу на сайте

    Дорогой пользователь! Огромная просьба, поблагодарите релизера, оцените раздачу и оставьте свои комментарий, если Вы скачали Билли Ингвал через торрент бесплатно!
    Комментировать посты могут только пользователи прошедшие не сложную регистрацию
    Показать сообщения:    

    Билли Ингвал через торрент
    Скачать бесплатно Билли Ингвал
    Билли Ингвал скачать торрент
    Билли Ингвал смотреть онлайн
    Cкачать фильм Билли Ингвал бесплатно
    Билли Ингвал скачать торрент в хорошем качестве
    Билли Ингвал смотреть онлайн бесплатно в хорошем качестве


    Вы не можете начинать темы
    Вы не можете отвечать на сообщения
    Вы не можете редактировать свои сообщения
    Вы не можете удалять свои сообщения
    Вы не можете голосовать в опросах
    Вы не можете прикреплять файлы к сообщениям
    Вы можете скачивать файлы