Anonymous, доброй ночи, присоединяйтесь к нам в Telegram!, здесь всегда актуальный адрес сайта, оперативная поддержка и многое другое!

>

5.5

iTunes

7.4

iTunes

7.9

iTunes

1

7.7

1 сезон

6.8

iTunes

7.3

1 сезон

13

6.7

1 сезон

8.3

RePack

30

ULTIMATE

pack

9.9

Лицензия

ВАЖНО

ИГРА 18+

pack

7.3

RePack

MK11

7.7

RePack

jed

7.8

RePack

fifa19

8.5

RePack

RDR2

RePack

NEED FOR SPEED™ PAYBACK

4 сезон

9 сезон

Бесстыжие 9 сезон

Все сериалы

все сериалы на PB.wtf

RePack

FAR CRY 5

Anonymous, доброй ночи, мы катастрофически не успеваем собрать деньги на оплату серверов, помогите нам пожалуйста 5,10,15р., для нас важна любая помощь . В качестве благодарности мы отключим Вам всю рекламу на сайте (укажите свой ник в строку Ваше имя)!

×
  
Magnet ссылка

Скотт и Бейли / Scott and Bailey / Серии: 1-6 из 6 (Сара Пиа Андерсон, Сидни Макартни) [2011 г., детектив, драма, SATRip, Субтитры] piratbit.org

Скотт и Бейли через торрент piratbit.org

Размер: 2.19 GB | Добавлен: 9 лет 6 мес. назад | Торрент скачан:19 раз
Смотреть онлайн Скотт и Бейли | Скачать    Ребята, помогите собрать деньги на оплату серверов!!!

06-04-2012 11:11 Скотт и Бейли Скачать торрент  

Скотт и Бейли / Scott and Bailey

Год выпуска: 2011
Страна: Великобритания
Жанр: детектив, драма
Продолжительность: 6 х ~00:46:00
Перевод: Субтитры

Режиссер: Сара Пиа Андерсон, Сидни Макартни

В ролях: Сюранна Джонс, Лесли Шарп, Амелия Баллмор, Руперт Грейвз, Луиз Деламер, Николас Гливс, Бен Бэтт, Тони Питтс, Тони Муни, Делрой Браун

Описание: Криминальная драма, повествующая о личной и профессиональной жизни двух детективов манчестерской полиции, специализирующихся на делах об убийствах.

Качество: SATRip
Формат: AVI
Видео кодек: XviD
Аудио кодек: MP3
Видео: 640x352 (1.82:1), 25 fps, XviD MPEG-4 ~1144 kbps avg, 0.20 bit/pixel
Аудио: 48 kHz, MPEG Layer 3, 2 ch, ~128.00 kbps avg |eng|

Общее
Формат : AVI
Формат/Информация : Audio Video Interleave
Размер файла : 415 Мбайт
Продолжительность : 45 м.
Общий поток : 1277 Кбит/сек
Программа кодирования : MEncoder SVN-r1.0~rc3+svn20090426-4.4.3
Библиотека кодирования : MPlayer

Видео
Идентификатор : 0
Формат : MPEG-4 Visual
Профиль формата : Advanced Simple@L5
Параметр BVOP формата : 2
Параметр QPel формата : Нет
Параметр GMC формата : Без точки перехода
Параметр матрицы формата : Default (H.263)
Режим смешивания : Сжатый битовый поток
Идентификатор кодека : XVID
Идентификатор кодека/Подсказка : XviD
Продолжительность : 45 м.
Битрейт : 1144 Кбит/сек
Ширина : 640 пикс.
Высота : 352 пикс.
Соотношение сторон : 16:9
Частота кадров : 25,000 кадр/сек
Цветовое пространство : YUV
Подвыборка цветности : 4:2:0
Битовая глубина : 8 бит
Тип развёртки : Прогрессивная
Метод сжатия : С потерями
Бит/(Пиксели*Кадры) : 0.203
Размер потока : 372 Мбайт (90%)
Библиотека кодирования : XviD 1.2.1 (UTC 2008-12-04)

Аудио
Идентификатор : 1
Формат : MPEG Audio
Версия формата : Version 1
Профиль формата : Layer 3
Режим : Joint stereo
Идентификатор кодека : 55
Идентификатор кодека/Подсказка : MP3
Продолжительность : 45 м.
Вид битрейта : Постоянный
Битрейт : 128 Кбит/сек
Каналы : 2 канала
Частота : 48,0 КГц
Метод сжатия : С потерями
Размер потока : 41,6 Мбайт (10%)
Выравнивание : Соединение по промежуткам
Продолжительность промежутка : 480 мс. (12,00 видеокадров)
Время предзагрузки промежутка : 960 ms
piratbit.org



Скачать Скотт и Бейли через торрент https://pic1.kartinco.top/images/2000/glkxtt9jj1.jpg Скачать, смотреть онлайн Скотт и Бейли бесплантно в хорошем качестве Описание: Криминальная драма, повествующая о личной и профессиональной жизни двух детективов манчестерской полиции, специализирующихся на ... 5 10 1
Info! Золотая раздача, скачанное не засчитывается.
Торрент: Зарегистрирован [2012-04-06 11:11] · скачан: 19 раз
Статус: √ проверено
Размер: 2.19 GB
Как cкачать? Как скачать Скотт и Бейли через торрент | UTorrent

28-11-2019 20:33  

Отключить всю рекламу на сайте

    Дорогой пользователь! Огромная просьба, поблагодарите релизера, оцените раздачу и оставьте свои комментарий, если Вы скачали Скотт и Бейли через торрент бесплатно!
    Комментировать посты могут только пользователи прошедшие не сложную регистрацию
    Показать сообщения:    

    Скотт и Бейли через торрент
    Скачать бесплатно Скотт и Бейли
    Скотт и Бейли скачать торрент
    Скотт и Бейли смотреть онлайн
    Cкачать фильм Скотт и Бейли бесплатно
    Скотт и Бейли скачать торрент в хорошем качестве
    Скотт и Бейли смотреть онлайн бесплатно в хорошем качестве


    Вы не можете начинать темы
    Вы не можете отвечать на сообщения
    Вы не можете редактировать свои сообщения
    Вы не можете удалять свои сообщения
    Вы не можете голосовать в опросах
    Вы не можете прикреплять файлы к сообщениям
    Вы можете скачивать файлы