Anonymous, добрый день, присоединяйтесь к нам в Telegram!, здесь всегда актуальный адрес сайта, оперативная поддержка и многое другое!

>

5.5

iTunes

7.4

iTunes

7.9

iTunes

1

7.7

1 сезон

6.8

iTunes

7.3

1 сезон

13

6.7

1 сезон

8.3

RePack

30

Deluxe

pack

9.9

Лицензия

ВАЖНО

ИГРА 18+

pack

7.3

RePack

MK11

7.7

RePack

jed

7.8

RePack

fifa19

8.5

RePack

RDR2

RePack

NEED FOR SPEED™ PAYBACK

4 сезон

9 сезон

Бесстыжие 9 сезон

Все сериалы

все сериалы на PB.wtf

RePack

FAR CRY 5

Anonymous, добрый день, мы катастрофически не успеваем собрать деньги на оплату серверов, помогите нам пожалуйста 5,10,15р., для нас важна любая помощь . В качестве благодарности мы отключим Вам всю рекламу на сайте (укажите свой ник в строку Ваше имя)!

×
  
Magnet ссылка

Пан Американ / Pan Am / Сезон: 1 (Серии: 1-12) (Томас Шламми, Эндрю Бернштейн, Джон Фортенберри) [2011 г., драма, WEB-DLRip, (полное дублирование) ] piratbit.org

Пан Американ через торрент piratbit.org

Размер: 5.29 GB | Добавлен: 9 лет 6 мес. назад | Торрент скачан:3 раза
Смотреть онлайн Пан Американ | Скачать    Ребята, помогите собрать деньги на оплату серверов!!!

07-04-2012 09:11 Пан Американ Скачать торрент  

Пан Американ / Pan Am

Год выпуска: 2011
Страна: США
Жанр: драма
Продолжительность: 12 х ~00:44:00
Перевод: Профессиональный (полное дублирование)
Субтитры: русские, английские

Режиссер: Томас Шламми, Эндрю Бернштейн, Джон Фортенберри

В ролях: Кристина Риччи (Christina Ricci), Марго Робби (Margot Robbie), Майкл Мозли (Michael Mosley), Карин Ванасс (Karine Vanasse), Майк Вогель (Mike Vogel), Келли Гарнер (Kelli Garner) и др.

Описание: Действие драматического сериала Pan Am переносит нас в 1963 г., в век высоких скоростей. Новый роскошный авиалайнер отправляется в полет. Пассажиры и команда становятся участниками любовных романов, интриг и даже международного шпионажа. Главная стюардесса, Мэгги, берет шефство над неопытной помощницей, Лорой, а главный пилот, Тед, очаровывает пассажиров. Отправьтесь в незабываемое путешествие вместе с командой Pan Am.

Качество: WEB-DLRip
Формат: AVI
Видео кодек: XviD
Аудио кодек: MP3
Видео: 656х368 (1.78), 23.976 fps, XviD MPEG-4, ~1165 kbps, 0.20 bit/pixel
Аудио#1: 48 kHz, MPEG Layer 3, 2 ch, ~128.00 kbps avg |rus|
Аудио#2: 48 kHz, MPEG Layer 3, 2 ch, ~128.00 kbps avg |eng|

Общее
Формат : AVI
Формат/Информация : Audio Video Interleave
Размер файла : 452 Мбайт
Продолжительность : 44 м.
Общий поток : 1435 Кбит/сек
Программа кодирования : VirtualDubMod 1.5.10.2 (build 2540/release)
Библиотека кодирования : VirtualDubMod build 2540/release

Видео
Идентификатор : 0
Формат : MPEG-4 Visual
Профиль формата : Advanced Simple@L5
Параметр BVOP формата : 3
Параметр QPel формата : Нет
Параметр GMC формата : Без точки перехода
Параметр матрицы формата : Default (MPEG)
Режим смешивания : Сжатый битовый поток
Идентификатор кодека : XVID
Идентификатор кодека/Подсказка : XviD
Продолжительность : 44 м.
Битрейт : 1165 Кбит/сек
Ширина : 656 пикс.
Высота : 368 пикс.
Соотношение сторон : 16:9
Частота кадров : 23,976 кадр/сек
Цветовое пространство : YUV
Подвыборка цветности : 4:2:0
Битовая глубина : 8 бит
Тип развёртки : Прогрессивная
Метод сжатия : С потерями
Бит/(Пиксели*Кадры) : 0.201
Размер потока : 367 Мбайт (81%)
Библиотека кодирования : XviD 1.2.1 (UTC 2008-12-04)

Аудио #1
Идентификатор : 1
Формат : MPEG Audio
Версия формата : Version 1
Профиль формата : Layer 3
Идентификатор кодека : 55
Идентификатор кодека/Подсказка : MP3
Продолжительность : 44 м.
Вид битрейта : Постоянный
Битрейт : 128 Кбит/сек
Каналы : 2 канала
Частота : 48,0 КГц
Метод сжатия : С потерями
Размер потока : 40,3 Мбайт (9%)
Выравнивание : Соединение по промежуткам
Продолжительность промежутка : 42 мс. (1,00 видеокадр)
Время предзагрузки промежутка : 504 ms
Библиотека кодирования : LAME3.98r
Настройки программы : -m s -V 4 -q 2 -lowpass 17 -b 128

Аудио #2
Идентификатор : 2
Формат : MPEG Audio
Версия формата : Version 1
Профиль формата : Layer 3
Идентификатор кодека : 55
Идентификатор кодека/Подсказка : MP3
Продолжительность : 44 м.
Вид битрейта : Постоянный
Битрейт : 128 Кбит/сек
Каналы : 2 канала
Частота : 48,0 КГц
Метод сжатия : С потерями
Размер потока : 40,3 Мбайт (9%)
Выравнивание : Соединение по промежуткам
Продолжительность промежутка : 42 мс. (1,00 видеокадр)
Время предзагрузки промежутка : 504 ms
Библиотека кодирования : LAME3.98r
Настройки программы : -m s -V 4 -q 2 -lowpass 17 -b 128
piratbit.org



Скачать Пан Американ через торрент http://i30.fastpic.ru/big/2011/1225/ca/9616db156725039a0762ee7e7b7328ca.png Скачать, смотреть онлайн Пан Американ бесплантно в хорошем качестве Описание: Действие драматического сериала Pan Am переносит нас в 1963 г., в век высоких скоростей. Новый роскошный авиалайнер отправляется ... 3 10 2
Info! Золотая раздача, скачанное не засчитывается.
Торрент: Зарегистрирован [2012-04-07 09:11] · скачан: 3 раз
Статус: √ проверено
Размер: 5.29 GB
Как cкачать? Как скачать Пан Американ через торрент | UTorrent

% Раздел Тема Автор DL S | L
Зарубежные сериалы [ 6.17 GB ] Пан Американ / Pan Am / Сезон: 1 / Серии 1-14 [2011 WEB-DLRip] DUB MVO Original Sub Assasinca Скачать
1 | 0
Зарубежные сериалы [ 3.52 GB ] Пан Американ / Pan Am / Сезон: 1 / Серии: 1-8 из 22 [2011 WEB-DLRip] Cherepp Скачать
1 | 0

28-11-2019 20:33  

Отключить всю рекламу на сайте

    Дорогой пользователь! Огромная просьба, поблагодарите релизера, оцените раздачу и оставьте свои комментарий, если Вы скачали Пан Американ через торрент бесплатно!
    Комментировать посты могут только пользователи прошедшие не сложную регистрацию
    Показать сообщения:    

    Пан Американ через торрент
    Скачать бесплатно Пан Американ
    Пан Американ скачать торрент
    Пан Американ смотреть онлайн
    Cкачать фильм Пан Американ бесплатно
    Пан Американ скачать торрент в хорошем качестве
    Пан Американ смотреть онлайн бесплатно в хорошем качестве


    Вы не можете начинать темы
    Вы не можете отвечать на сообщения
    Вы не можете редактировать свои сообщения
    Вы не можете удалять свои сообщения
    Вы не можете голосовать в опросах
    Вы не можете прикреплять файлы к сообщениям
    Вы можете скачивать файлы