Anonymous, добрый день, присоединяйтесь к нам в Telegram!, здесь всегда актуальный адрес сайта, оперативная поддержка и многое другое!

>

5.6

iTunes

7.4

iTunes

5.7

MVO

1

7.7

1 сезон

6.8

iTunes

7.3

1 сезон

13

6.7

1 сезон

8.3

RePack

30

ULTIMATE

pack

9.9

Лицензия

ВАЖНО

ИГРА 18+

pack

7.3

RePack

MK11

7.7

RePack

jed

7.8

RePack

fifa19

8.5

RePack

RDR2

RePack

NEED FOR SPEED™ PAYBACK

4 сезон

9 сезон

Бесстыжие 9 сезон

Все сериалы

все сериалы на PB.wtf

RePack

FAR CRY 5

Anonymous, добрый день, мы катастрофически не успеваем собрать деньги на оплату серверов, помогите нам пожалуйста 5,10,15р., для нас важна любая помощь . В качестве благодарности мы отключим Вам всю рекламу на сайте (укажите свой ник в строку Ваше имя)!

×
  
Magnet ссылка

Посредник Кейт (Всё законно) / Fairly Legal / Сезон: 1 (Серии: 1-10 из 10) (Тришиа Брок, Бронуэн Хьюз) [2011 г., драма, комедия, WEB-DLRip, MVO ] piratbit.org

Посредник Кейт через торрент piratbit.org

Размер: 5.52 GB | Добавлен: 9 лет 6 мес. назад | Торрент скачан:13 раз
Смотреть онлайн Посредник Кейт | Скачать    Ребята, помогите собрать деньги на оплату серверов!!!

07-04-2012 09:23 Посредник Кейт Скачать торрент  

Посредник Кейт (Всё законно) / Fairly Legal

Год выпуска: 2011
Страна: США
Жанр: драма, комедия
Продолжительность: 10 х ~00:41:00
Перевод: Профессиональный (многоголосый, закадровый)

Режиссер: Тришиа Брок, Бронуэн Хьюз

В ролях: Сара Шахи, Майкл Трукко, Барон Вон, Джинджер Р. Уильямс, Итэн Эмбри, Ричард Дин Андерсон, Стив Белфорд, Джеффри Бауэр-Чепман, Рауль Бустаманте

Описание: Кейт Рид (Сара Шахи) уверена, что суд – не всегда единственный источник правосудия. Раньше она работала юристом в уважаемой фирме в Сан-Франциско, принадлежащей её семье, однако, разочаровавшись в судебной системе, Кейт становится медиатором. Врождённое понимание человеческой натуры, знание законов и прекрасное чувство юмора делают Кейт самой подходящей кандидатурой для разрешения споров... За исключением конфликтов, происходящих в её собственной жизни. После внезапной смерти отца отношения между Кейт и её новым начальником, «ужасной» мачехой Лорен (Джинджер Уильямс), становятся ещё сложнее, а ситуация с её бывшим мужем Джастином (Майкл Трукко), помощником окружного прокурора в Сан-Франциско, никак не прояснятся. Её находчивый помощник Леонардо (Барон Вон) помогает Кейт сделать всё возможное, чтобы сконцентрироваться на работе и скрыться от собственных проблем. Внезапно появляются новые личные проблемы и сложные, нестандартные дела: мастерству новоиспечённого медиатора предстоит пройти проверку на прочность.

Качество: WEB-DLRip
Формат: AVI
Видео кодек: XviD
Аудио кодек: MP3
Видео: 720x400 (1.80:1), 23.976 fps, XviD MPEG-4 ~1252 kbps avg, 0.18 bit/pixel
Аудио#1: 48 kHz, MPEG Layer 3, 2 ch, ~128.00 kbps avg |rus|
Аудио#2: 48 kHz, MPEG Layer 3, 2 ch, ~128.00 kbps avg |eng|

Общее
Формат : AVI
Формат/Информация : Audio Video Interleave
Размер файла : 550 Мбайт
Продолжительность : 40 м.
Общий поток : 1890 Кбит/сек
Программа кодирования : VirtualDubMod 1.5.10.2 (build 2540/release)
Библиотека кодирования : VirtualDubMod build 2540/release

Видео
Идентификатор : 0
Формат : MPEG-4 Visual
Профиль формата : Advanced Simple@L5
Параметр BVOP формата : 2
Параметр QPel формата : Нет
Параметр GMC формата : Без точки перехода
Параметр матрицы формата : Default (MPEG)
Идентификатор кодека : XVID
Идентификатор кодека/Подсказка : XviD
Продолжительность : 40 м.
Битрейт : 1615 Кбит/сек
Ширина : 720 пикс.
Высота : 400 пикс.
Соотношение сторон : 16:9
Частота кадров : 23,976 кадр/сек
Цветовое пространство : YUV
Подвыборка цветности : 4:2:0
Битовая глубина : 8 бит
Тип развёртки : Прогрессивная
Метод сжатия : С потерями
Бит/(Пиксели*Кадры) : 0.234
Размер потока : 470 Мбайт (85%)
Библиотека кодирования : XviD 1.2.1 (UTC 2008-12-04)

Аудио #1
Идентификатор : 1
Формат : MPEG Audio
Версия формата : Version 1
Профиль формата : Layer 3
Режим : Joint stereo
Расширение режима : MS Stereo
Идентификатор кодека : 55
Идентификатор кодека/Подсказка : MP3
Продолжительность : 40 м.
Вид битрейта : Постоянный
Битрейт : 128 Кбит/сек
Каналы : 2 канала
Частота : 48,0 КГц
Метод сжатия : С потерями
Размер потока : 37,3 Мбайт (7%)
Выравнивание : Соединение по промежуткам
Продолжительность промежутка : 42 мс. (1,00 видеокадр)
Время предзагрузки промежутка : 504 ms

Аудио #2
Идентификатор : 2
Формат : MPEG Audio
Версия формата : Version 1
Профиль формата : Layer 3
Режим : Joint stereo
Расширение режима : MS Stereo
Идентификатор кодека : 55
Идентификатор кодека/Подсказка : MP3
Продолжительность : 40 м.
Вид битрейта : Переменный
Битрейт : 128 Кбит/сек
Каналы : 2 канала
Частота : 48,0 КГц
Метод сжатия : С потерями
Размер потока : 37,6 Мбайт (7%)
Выравнивание : Соединение по промежуткам
Продолжительность промежутка : 24 мс. (0,58 видеокадр)
Время предзагрузки промежутка : 142 ms
Библиотека кодирования : LAME3.90.
Настройки программы : -m j -V 4 -q 2 -lowpass 17.6 --abr 128
piratbit.org



Скачать Посредник Кейт через торрент http://i29.fastpic.ru/big/2011/1010/85/7c95cea7658282fbf2cbc6403b507585.jpg Скачать, смотреть онлайн Посредник Кейт бесплантно в хорошем качестве Описание: Кейт Рид (Сара Шахи) уверена, что суд – не всегда единственный источник правосудия. Раньше она работала юристом в уважаемой фирме ... 5 10 3
Info! Золотая раздача, скачанное не засчитывается.
Торрент: Зарегистрирован [2012-04-07 09:23] · скачан: 13 раз
Статус: √ проверено
Размер: 5.52 GB
Как cкачать? Как скачать Посредник Кейт через торрент | UTorrent

28-11-2019 20:33  

Отключить всю рекламу на сайте

    Дорогой пользователь! Огромная просьба, поблагодарите релизера, оцените раздачу и оставьте свои комментарий, если Вы скачали Посредник Кейт через торрент бесплатно!
    Комментировать посты могут только пользователи прошедшие не сложную регистрацию
    Показать сообщения:    

    Посредник Кейт через торрент
    Скачать бесплатно Посредник Кейт
    Посредник Кейт скачать торрент
    Посредник Кейт смотреть онлайн
    Cкачать фильм Посредник Кейт бесплатно
    Посредник Кейт скачать торрент в хорошем качестве
    Посредник Кейт смотреть онлайн бесплатно в хорошем качестве


    Вы не можете начинать темы
    Вы не можете отвечать на сообщения
    Вы не можете редактировать свои сообщения
    Вы не можете удалять свои сообщения
    Вы не можете голосовать в опросах
    Вы не можете прикреплять файлы к сообщениям
    Вы можете скачивать файлы