Anonymous, добрый день, присоединяйтесь к нам в Telegram!, здесь всегда актуальный адрес сайта, оперативная поддержка и многое другое!

>

5.6

iTunes

7.4

iTunes

5.7

MVO

1

7.7

1 сезон

6.8

iTunes

7.3

1 сезон

13

6.7

1 сезон

8.3

RePack

30

ULTIMATE

pack

9.9

Лицензия

ВАЖНО

ИГРА 18+

pack

7.3

RePack

MK11

7.7

RePack

jed

7.8

RePack

fifa19

8.5

RePack

RDR2

RePack

NEED FOR SPEED™ PAYBACK

4 сезон

9 сезон

Бесстыжие 9 сезон

Все сериалы

все сериалы на PB.wtf

RePack

FAR CRY 5

Anonymous, добрый день, мы катастрофически не успеваем собрать деньги на оплату серверов, помогите нам пожалуйста 5,10,15р., для нас важна любая помощь . В качестве благодарности мы отключим Вам всю рекламу на сайте (укажите свой ник в строку Ваше имя)!

×
  
Magnet ссылка

Хэппи энды / Счастливый конец / Happy Endings / Сезон: 1 (Серии: 1-13 из 13) (Джеффри Мэлман) [2011 г., комедия, WEB-DLRip, DVO + оригинал] piratbit.org

Хэппи энды через торрент piratbit.org

Размер: 5.38 GB | Добавлен: 9 лет 6 мес. назад | Торрент скачан:9 раз
Смотреть онлайн Хэппи энды | Скачать    Ребята, помогите собрать деньги на оплату серверов!!!

08-04-2012 12:51 Хэппи энды Скачать торрент  

Хэппи энды / Счастливый конец / Happy Endings

Год выпуска: 2011
Страна: США
Жанр: комедия
Продолжительность: 13 х ~00:21:00
Перевод: Профессиональный (двухголосый закадровый) + оригинал

Режиссер: Джеффри Мэлман

В ролях: Закари Найтон (Дейв), Элиша Катберт (Алекс), Кэйси Уилсон (Пэнни), Элиза Куп (Джейн), Адам Пэлли (Макс), Дэймон Уайанс мл. (Брэд)

Описание: Когда пара расстается, главный вопрос – с кем останутся друзья? В этой современной комедии разрыв отношений между двумя людьми осложнит жизнь их друзей и поставит их перед выбором. Когда в твоей жизни наступает тяжелый период… держись крепче за людей, которых ты любишь.
У каждого круга друзей есть свой центр притяжения. На протяжении многих лет идеальная пара Дейв и Алекс привлекала друзей и держала их вместе. Теперь, когда они расстались, есть ли у остальных причины оставаться с ними? Или Макс, Брэд, Джейн и Пэнни должны выбрать какую-то одну сторону? Внезапно любое событие стало похоже на переговоры. Например, кто отправится в ежегодную поездку на лыжах? На много вопросов еще придется ответить, но эта группа была вместе так долго, что каким-то образом, мало-помалу, им нужно будет решить как остаться вместе, несмотря на их расколовшееся ядро. То, что Дейв и Алекс согласились остаться друзьями, безусловно, помогает. Но впереди еще много различных осложнений. Например, как быть с чувствами Пэнни к Дейву, которые она уже давно старалась подавлять? Сколько нужно ждать, чтобы назначить свидание бывшему жениху своей подруги? Этот сериал не боится задавать неловкие личные вопросы, который неизбежно возникают в сплочённой группе друзей.

Качество: WEB-DLRip
Формат: AVI
Видео кодек: XviD
Аудио кодек: AC3
Видео: 720x400 (1.80:1), 23.976 fps, XviD build 58 ~1998 kbps avg, 0.29 bit/pixel
Аудио#1: 48 kHz, AC3 Dolby Digital, 3/2 (L,C,R,l,r) + LFE ch, ~384 kbps |rus|
Аудио#2: 48 kHz, AC3 Dolby Digital, 3/2 (L,C,R,l,r) + LFE ch, ~384 kbps |eng|

Общее
Формат : AVI
Формат/Информация : Audio Video Interleave
Размер файла : 431 Мбайт
Продолжительность : 21 м.
Общий поток : 2782 Кбит/сек
Программа кодирования : VirtualDubMod 1.5.10.2 (build 2540/release)
Библиотека кодирования : VirtualDubMod build 2540/release

Видео
Идентификатор : 0
Формат : MPEG-4 Visual
Профиль формата : Advanced Simple@L5
Параметр BVOP формата : 2
Параметр QPel формата : Нет
Параметр GMC формата : Без точки перехода
Параметр матрицы формата : Default (MPEG)
Идентификатор кодека : XVID
Идентификатор кодека/Подсказка : XviD
Продолжительность : 21 м.
Битрейт : 2000 Кбит/сек
Ширина : 720 пикс.
Высота : 400 пикс.
Соотношение сторон : 16:9
Частота кадров : 23,976 кадр/сек
Цветовое пространство : YUV
Подвыборка цветности : 4:2:0
Битовая глубина : 8 бит
Тип развёртки : Прогрессивная
Метод сжатия : С потерями
Бит/(Пиксели*Кадры) : 0.290
Размер потока : 310 Мбайт (72%)
Библиотека кодирования : XviD 58

Аудио #1
Идентификатор : 1
Формат : AC-3
Формат/Информация : Audio Coding 3
Расширение режима : CM (complete main)
Идентификатор кодека : 2000
Продолжительность : 21 м.
Вид битрейта : Постоянный
Битрейт : 384 Кбит/сек
Каналы : 6 каналов
Расположение каналов : Front: L C R, Side: L R, LFE
Частота : 48,0 КГц
Битовая глубина : 16 бит
Метод сжатия : С потерями
Размер потока : 59,4 Мбайт (14%)
Выравнивание : Разделение по промежуткам
Продолжительность промежутка : 42 мс. (1,00 видеокадр)
Время предзагрузки промежутка : 500 ms

Аудио #2
Идентификатор : 2
Формат : AC-3
Формат/Информация : Audio Coding 3
Расширение режима : CM (complete main)
Идентификатор кодека : 2000
Продолжительность : 21 м.
Вид битрейта : Постоянный
Битрейт : 384 Кбит/сек
Каналы : 6 каналов
Расположение каналов : Front: L C R, Side: L R, LFE
Частота : 48,0 КГц
Битовая глубина : 16 бит
Метод сжатия : С потерями
Размер потока : 59,4 Мбайт (14%)
Выравнивание : Разделение по промежуткам
Продолжительность промежутка : 42 мс. (1,00 видеокадр)
Время предзагрузки промежутка : 500 ms
piratbit.org



Скачать Хэппи энды через торрент http://i20.fastpic.ru/big/2011/0421/d3/5e21176beea3afe0c9f87372225c4fd3.jpg Скачать, смотреть онлайн Хэппи энды бесплантно в хорошем качестве Описание: Когда пара расстается, главный вопрос – с кем останутся друзья? В этой современной комедии разрыв отношений между двумя людьми ... 10 10 1
Info! Золотая раздача, скачанное не засчитывается.
Торрент: Зарегистрирован [2012-04-08 12:51] · скачан: 9 раз
Статус: √ проверено
Размер: 5.38 GB
Как cкачать? Как скачать Хэппи энды через торрент | UTorrent

% Раздел Тема Автор DL S | L
Зарубежные сериалы [ 5.1 GB ] Хэппи Энды Сезон: 2 Серия 1 - 7 из 13 / Happy Endings [2011 WEB-DLRip] ДЕН163 Скачать
1 | 0

28-11-2019 20:33  

Отключить всю рекламу на сайте

    Дорогой пользователь! Огромная просьба, поблагодарите релизера, оцените раздачу и оставьте свои комментарий, если Вы скачали Хэппи энды через торрент бесплатно!
    Комментировать посты могут только пользователи прошедшие не сложную регистрацию
    Показать сообщения:    

    Хэппи энды через торрент
    Скачать бесплатно Хэппи энды
    Хэппи энды скачать торрент
    Хэппи энды смотреть онлайн
    Cкачать фильм Хэппи энды бесплатно
    Хэппи энды скачать торрент в хорошем качестве
    Хэппи энды смотреть онлайн бесплатно в хорошем качестве


    Вы не можете начинать темы
    Вы не можете отвечать на сообщения
    Вы не можете редактировать свои сообщения
    Вы не можете удалять свои сообщения
    Вы не можете голосовать в опросах
    Вы не можете прикреплять файлы к сообщениям
    Вы можете скачивать файлы