Anonymous, добрый день, присоединяйтесь к нам в Telegram!, здесь всегда актуальный адрес сайта, оперативная поддержка и многое другое!

>

5.5

iTunes

7.4

iTunes

7.9

iTunes

1

7.7

1 сезон

6.8

iTunes

7.3

1 сезон

13

6.7

1 сезон

8.3

RePack

30

Deluxe

pack

9.9

Лицензия

ВАЖНО

ИГРА 18+

pack

7.3

RePack

MK11

7.7

RePack

jed

7.8

RePack

fifa19

8.5

RePack

RDR2

RePack

NEED FOR SPEED™ PAYBACK

4 сезон

9 сезон

Бесстыжие 9 сезон

Все сериалы

все сериалы на PB.wtf

RePack

FAR CRY 5

Anonymous, добрый день, мы катастрофически не успеваем собрать деньги на оплату серверов, помогите нам пожалуйста 5,10,15р., для нас важна любая помощь . В качестве благодарности мы отключим Вам всю рекламу на сайте (укажите свой ник в строку Ваше имя)!

×
  
Magnet ссылка

Одаренный человек / A Gifted Man / Сезон: 1 (Серии: 1-16 из 16) (Сюзанна Грант, Джонатан Демме) [2011 г., драма, WEB-DLRip, Любительский (многоголосый закадровый) + оригинал] piratbit.org

Одаренный человек через торрент piratbit.org

Размер: 7.04 GB | Добавлен: 9 лет 6 мес. назад | Торрент скачан:39 раз
Смотреть онлайн Одаренный человек | Скачать    Ребята, помогите собрать деньги на оплату серверов!!!

08-04-2012 14:54 Одаренный человек Скачать торрент  

Одаренный человек / A Gifted Man

Год выпуска: 2011
Страна: США
Жанр: драма
Продолжительность: 16 х ~00:42:00
Перевод: Любительский (многоголосый закадровый) + оригинал

Режиссер: Сюзанна Грант, Джонатан Демме

В ролях: Патрик Вилсон, Дженнифер Эль, Ширли Роека, Сьюзи Абромейт, Лиам Эйкен, Джули Бенц, Шина Колетт, Куинси Данн-Бэйкер, Виктория Хэйнс, Такако Хэйвуд, Джина Эрнандез и др.

Описание: Майкл Холт, талантливый доктор, который живет в роскоши, обеспеченной карьерой и богатыми пациентами. Но упорядоченный мир Майкла рушится в тот момент как его покойная бывшая жена Анна, идеалистка, работавшая в бесплатной клинике, и любовь всей его жизни, начитает являться Майклу чудесным образом. Майкл хочет вернуться к нормальной жизни и обращается к Энтону, плотнику, который подрабатывает шаманом, чтобы тот изгнал дух Анны из тела Майкла. Но Анна является к Майклу снова, и просит его помочь в бесплатной клинике. Странные перемены в поведении Майкла привлекают внимание Риты, его ассистентки, которой все сложнее составлять его расписание, соблюдая баланс между его работой в частной и бесплатной клиниках. Помощь нуждающимся тронула сердце Майкла, он привыкает к присутствию Анны, и меняет свои взгляды на бедных и богатых, понимая, что в жизни найдется место всем.

Качество: WEB-DLRip
Формат: AVI
Видео кодек: XviD
Аудио кодек: MP3
Видео: 720x400 (16:9), 23.976 fps, ~1200 kbps, ~0.180 bit/pixel
Аудио#1: 48 kHz, 2 ch, ~128 kbps |rus|
Аудио#2: 48 kHz, 2 ch, ~128 kbps |eng|

Общее
Формат : AVI
Формат/Информация : Audio Video Interleave
Размер файла : 450 Мбайт
Продолжительность : 43 м.
Общий поток : 1442 Кбит/сек
Программа кодирования : VirtualDubModRus 1.5.10.2 (build 2542/release)
Библиотека кодирования : VirtualDubMod build 2542/release

Видео
Идентификатор : 0
Формат : MPEG-4 Visual
Профиль формата : Advanced Simple@L5
Параметр BVOP формата : 2
Параметр QPel формата : Нет
Параметр GMC формата : Без точки перехода
Параметр матрицы формата : Default (H.263)
Режим смешивания : Сжатый битовый поток
Идентификатор кодека : XVID
Идентификатор кодека/Подсказка : XviD
Продолжительность : 43 м.
Битрейт : 1172 Кбит/сек
Ширина : 720 пикс.
Высота : 400 пикс.
Соотношение сторон : 16:9
Частота кадров : 23,976 кадр/сек
Цветовое пространство : YUV
Подвыборка цветности : 4:2:0
Битовая глубина : 8 бит
Тип развёртки : Прогрессивная
Метод сжатия : С потерями
Бит/(Пиксели*Кадры) : 0.170
Размер потока : 366 Мбайт (81%)
Библиотека кодирования : XviD 1.2.1 (UTC 2008-12-04)

Аудио #1
Идентификатор : 1
Формат : MPEG Audio
Версия формата : Version 1
Профиль формата : Layer 3
Режим : Joint stereo
Расширение режима : MS Stereo
Идентификатор кодека : 55
Идентификатор кодека/Подсказка : MP3
Продолжительность : 43 м.
Вид битрейта : Постоянный
Битрейт : 128 Кбит/сек
Каналы : 2 канала
Частота : 44,1 КГц
Метод сжатия : С потерями
Размер потока : 40,0 Мбайт (9%)
Выравнивание : Разделение по промежуткам
Продолжительность промежутка : 42 мс. (1,00 видеокадр)
Время предзагрузки промежутка : 500 ms

Аудио #2
Идентификатор : 2
Формат : MPEG Audio
Версия формата : Version 1
Профиль формата : Layer 3
Режим : Joint stereo
Идентификатор кодека : 55
Идентификатор кодека/Подсказка : MP3
Продолжительность : 43 м.
Вид битрейта : Постоянный
Битрейт : 128 Кбит/сек
Каналы : 2 канала
Частота : 48,0 КГц
Метод сжатия : С потерями
Размер потока : 40,0 Мбайт (9%)
Выравнивание : Соединение по промежуткам
Продолжительность промежутка : 42 мс. (1,00 видеокадр)
Время предзагрузки промежутка : 504 ms
Библиотека кодирования : LAME3.98r
Настройки программы : -m j -V 4 -q 2 -lowpass 17 -b 128
piratbit.org



Скачать Одаренный человек через торрент http://i29.fastpic.ru/big/2011/1010/a8/6235e9837ae2981b8b46d79228a05ea8.jpg Скачать, смотреть онлайн Одаренный человек бесплантно в хорошем качестве Описание: Майкл Холт, талантливый доктор, который живет в роскоши, обеспеченной карьерой и богатыми пациентами. Но упорядоченный мир Майкла ... 10 10 1
Info! Золотая раздача, скачанное не засчитывается.
Торрент: Зарегистрирован [2012-04-08 14:54] · скачан: 39 раз
Статус: √ проверено
Размер: 7.04 GB
Как cкачать? Как скачать Одаренный человек через торрент | UTorrent

28-11-2019 20:33  

Отключить всю рекламу на сайте

    Дорогой пользователь! Огромная просьба, поблагодарите релизера, оцените раздачу и оставьте свои комментарий, если Вы скачали Одаренный человек через торрент бесплатно!
    Комментировать посты могут только пользователи прошедшие не сложную регистрацию
    Показать сообщения:    

    Одаренный человек через торрент
    Скачать бесплатно Одаренный человек
    Одаренный человек скачать торрент
    Одаренный человек смотреть онлайн
    Cкачать фильм Одаренный человек бесплатно
    Одаренный человек скачать торрент в хорошем качестве
    Одаренный человек смотреть онлайн бесплатно в хорошем качестве


    Вы не можете начинать темы
    Вы не можете отвечать на сообщения
    Вы не можете редактировать свои сообщения
    Вы не можете удалять свои сообщения
    Вы не можете голосовать в опросах
    Вы не можете прикреплять файлы к сообщениям
    Вы можете скачивать файлы