Ссылка на приватное зеркало всего за 1$. Внимание количество ограничено!!!

iTunes

iTunes

iTunes

1

iTunes

iTunes

iTunes

iTunes

iTunes

30
pack

Новость дня

ВАЖНО

!!Акция!!

Alien_RageХит недели

RePack

Resident Evil 21

ИГРА 18+

pack

RePack

jed

!!Акция!!

Alien_Rage

RePack

fifa19

RePack

Assassins Creed: Odyssey

RePack

NEED FOR SPEED™ PAYBACK

4 сезон

9 сезон

Бесстыжие 9 сезон

Все сериалы

все сериалы на PB.wtf

RePack

FAR CRY 5
  

Миссия невыполнима: Протокол Фантом / Mission: Impossible - Ghost Protocol (Брэд Бёрд) [2011 г., боевик, триллер, приключения, Blu-ray Rip, DUB (лицензия)] piratbit.org

Миссия невыполнима: Протокол Фантом через торрент piratbit.org

Размер: 17.25 GB | Добавлен: 7 лет 11 мес. назад | Торрент скачан:281 раз
Скачать  

09-04-2012 10:30 Миссия невыполнима: Протокол Фантом Скачать торрент  

Миссия невыполнима: Протокол Фантом / Mission: Impossible - Ghost Protocol

Год выпуска: 2011
Страна: США
Жанр: боевик, триллер, приключения
Продолжительность: 02:12:56
Перевод: Профессиональный (полное дублирование)
Субтитры: Русские х2, Английские х3

Режиссер: Брэд Бёрд
Продюссер: Джей Джей Абрамс, Брайан Берк, Том Круз
Сценарий: Джош Аппелбаум, Андре Немец, Брюс Геллер

Бюджет: $145 000 000

детям до 13 лет просмотр не желателен
Мировой рейтинг IMDB 7.60 (85 203)


В ролях: Том Круз, Пола Пэттон, Саймон Пегг, Джереми Реннер, Микаэл Нюквист, Владимир Машков, Самули Эдельманн, Иван Шведов, Анил Капур, Леа Сейду, Всеволод Кузнецов, Рамиля Искандер, Илья Бледный, Сергей Смирнов, Андрей Казанцев

Описание: Специальный агент отряда «Миссия невыполнима» Итан Хант и его коллеги несправедливо обвинены в причастности к взрыву Кремля. Президент инициирует «Протокол Фантом», в результате которого спецподразделение ликвидировано, и Итан остается без какой-либо поддержки. Он намерен очистить свое доброе имя и предотвратить новую атаку, но делать это ему придется вместе с командой коллег, истинных мотивов которых он до конца не знает.

Качество: Blu-ray Rip
Формат: MKV
Видео кодек: H.26x
Аудио кодек: AC3, DTS
Видео: 1920x800 at 23.976 fps, x264@L4.1, 2pass, ~16600 kbps avg
Аудио#1: Русский дубляж / Dolby Digital / 5.1 / 48 kHz / 448 kbps
Аудио#2: Английский / DTS / 5.1 / 48 kHz / 1536 kbps
Код:
General
Complete name : F:\ -= Фильмы =-\Миссия невыполнима. Протокол Фантом (2011. Mission Impossible. Ghost Protocol).mkv
Format : Matroska
File size : 17.3 GiB
Duration : 2h 12mn
Overall bit rate : 18.6 Mbps
Encoded date : UTC 2012-04-07 12:33:10
Writing application : mkvmerge v4.9.1 ('Ich will') сборка от Jul 11 2011 23:53:15
Writing library : libebml v1.2.1 + libmatroska v1.1.1
Video
ID : 1
Format : AVC
Format/Info : Advanced Video Codec
Format profile : High@L4.1
Format settings, CABAC : Yes
Format settings, ReFrames : 5 frames
Format settings, GOP : M=8, N=16
Muxing mode : Container profile=Unknown@4.1
Codec ID : V_MPEG4/ISO/AVC
Duration : 2h 12mn
Bit rate : 16.3 Mbps
Width : 1 920 pixels
Height : 800 pixels
Display aspect ratio : 2.40:1
Frame rate : 23.976 fps
Color space : YUV
Chroma subsampling : 4:2:0
Bit depth : 8 bits
Scan type : Progressive
Bits/(Pixel*Frame) : 0.441
Stream size : 15.1 GiB (87%)
Title : Mission.Impossible.Ghost.Protocol.2011.1080p.BluRay.DD5.1.x264-EbP
Writing library : x264 core 122 r2184 5c85e0a
Encoding settings : cabac=1 / ref=5 / deblock=1:-3:-3 / analyse=0x3:0x113 / me=tesa / subme=11 / psy=1 / psy_rd=1.00:0.00 / mixed_ref=1 / me_range=16 / chroma_me=1 / trellis=2 / 8x8dct=1 / cqm=0 / deadzone=21,11 / fast_pskip=0 / chroma_qp_offset=-2 / threads=6 / sliced_threads=0 / nr=0 / decimate=0 / interlaced=0 / bluray_compat=0 / constrained_intra=0 / bframes=7 / b_pyramid=2 / b_adapt=2 / b_bias=0 / direct=3 / weightb=1 / open_gop=0 / weightp=2 / keyint=250 / keyint_min=23 / scenecut=40 / intra_refresh=0 / rc=crf / mbtree=0 / crf=17.5 / qcomp=0.67 / qpmin=0 / qpmax=69 / qpstep=4 / ip_ratio=1.40 / pb_ratio=1.20 / aq=1:0.85
Language : English
Audio #1
ID : 2
Format : AC-3
Format/Info : Audio Coding 3
Mode extension : CM (complete main)
Codec ID : A_AC3
Duration : 2h 12mn
Bit rate mode : Constant
Bit rate : 448 Kbps
Channel(s) : 6 channels
Channel positions : Front: L C R, Side: L R, LFE
Sampling rate : 48.0 KHz
Bit depth : 16 bits
Stream size : 426 MiB (2%)
Title : Дубляж
Language : Russian
Audio #2
ID : 3
Format : DTS
Format/Info : Digital Theater Systems
Codec ID : A_DTS
Duration : 2h 12mn
Bit rate mode : Constant
Bit rate : 1 510 Kbps
Channel(s) : 6 channels
Channel positions : Front: L C R, Side: L R, LFE
Sampling rate : 48.0 KHz
Bit depth : 24 bits
Stream size : 1.40 GiB (8%)
Language : English
Text #1
ID : 4
Format : UTF-8
Codec ID : S_TEXT/UTF8
Codec ID/Info : UTF-8 Plain Text
Title : Forced
Language : Russian
Text #2
ID : 5
Format : UTF-8
Codec ID : S_TEXT/UTF8
Codec ID/Info : UTF-8 Plain Text
Title : English
Language : English

Menu
00:00:00.000 : :00:00:00.000
00:04:41.907 : :00:04:41.907
00:11:28.897 : :00:11:28.897
00:20:01.951 : :00:20:01.951
00:27:35.320 : :00:27:35.320
00:33:28.173 : :00:33:28.173
00:38:18.087 : :00:38:18.087
00:44:46.100 : :00:44:46.100
00:51:37.219 : :00:51:37.219
00:56:05.153 : :00:56:05.153
01:02:50.183 : :01:02:50.183
01:09:17.820 : :01:09:17.820
01:16:32.379 : :01:16:32.379
01:22:18.517 : :01:22:18.517
01:31:17.055 : :01:31:17.055
01:35:57.377 : :01:35:57.377
01:42:49.914 : :01:42:49.914
01:51:01.780 : :01:51:01.780
01:58:26.391 : :01:58:26.391
02:05:58.843 : :02:05:58.843
piratbit.org



Скачать Миссия невыполнима: Протокол Фантом через торрент http://pic.kartinco.top/images/2000/jv9ibp1krb.png Скачать фильм Миссия невыполнима: Протокол Фантом через торрент бесплантно в хорошем качестве Описание: Специальный агент отряда «Миссия невыполнима» Итан Хант и его коллеги несправедливо обвинены в причастности к взрыву Кремля. ... 10 10 1
Info! Золотая раздача, скачанное не засчитывается.
Торрент: Зарегистрирован [2012-04-09 10:30] · скачан: 281 раз
Статус: √ проверено
Размер: 17.25 GB
Как cкачать? Как скачать Миссия невыполнима: Протокол Фантом через торрент | qTorrent

% Раздел Тема Автор DL S | L
Ultra HD (UHD: 2K, 4K, 8K) — видео сверхвысокой чёткости [ 71.79 GB ] Миссия невыполнима: Протокол Фантом / Mission: Impossible - Ghost Protocol [2011 UHD BDRemux 2160p] DUB + 3xAVO sheker187 Скачать
1 | 0
Ultra HD (UHD: 2K, 4K, 8K) — видео сверхвысокой чёткости [ 45.14 GB ] Миссия невыполнима: Протокол Фантом / Mission: Impossible - Ghost Protocol [2011 UHD BDRemux 2160p] DUB [Dolby Vision] sheker187 Скачать
1 | 1
Фильмы [HD 720p, 1080p] (Хороший звук DUB, MVO) [ 7.81 GB ] Миссия невыполнима: Протокол Фантом / Mission: Impossible - Ghost Protocol [2011 BDRip-HEVC 1080p ] 3xAVO+DUB bober100 Скачать
2 | 1
Ultra HD (UHD: 2K, 4K, 8K) — видео сверхвысокой чёткости [ 46.04 GB ] Миссия невыполнима: Протокол Фантом / Mission: Impossible - Ghost Protocol [2011 UHD BDRip 2160p] DUB + 3xAVO sheker187 Скачать
1 | 0
Фильмы (DVD фильмы) [ 6.24 GB ] Миссия невыполнима: Протокол Фантом / Mission: Impossible - Ghost Protocol [2011 DVD9] R5 voovaz Скачать
1 | 0
Фильмы [HD 720p, 1080p] (Хороший звук DUB, MVO) [ 9.14 GB ] Миссия невыполнима: Протокол Фантом / Mission: Impossible - Ghost Protocol [2011 BDRip 1080p] NarutoSasuke Скачать
1 | 1
Фильмы [HD 720p, 1080p] (Хороший звук DUB, MVO) [ 7.38 GB ] Миссия невыполнима: Протокол Фантом / Mission: Impossible - Ghost Protocol [2011 BDRip 720p лицензия] Ke$h@ Скачать
1 | 0


Последний раз редактировалось: xyligant (2012-04-10 05:57), всего редактировалось 1 раз

28-11-2019 20:33  

Отключить всю рекламу на сайте

    Дорогой пользователь! Огромная просьба, поблагодарите релизера, оцените раздачу и оставьте свои комментарий, если Вы скачали Миссия невыполнима: Протокол Фантом через торрент бесплатно! Внесите свою лепту в развитие PiratBit!
    Комментировать посты могут только пользователи прошедшие не сложную регистрацию
    Показать сообщения:    

    Миссия невыполнима: Протокол Фантом через торрент
    Скачать бесплатно Миссия невыполнима: Протокол Фантом
    Миссия невыполнима: Протокол Фантом скачать торрент
    Миссия невыполнима: Протокол Фантом смотреть онлайн
    Cкачать фильм Миссия невыполнима: Протокол Фантом бесплатно
    Миссия невыполнима: Протокол Фантом скачать торрент в хорошем качестве
    Миссия невыполнима: Протокол Фантом смотреть онлайн бесплатно в хорошем качестве


    Вы не можете начинать темы
    Вы не можете отвечать на сообщения
    Вы не можете редактировать свои сообщения
    Вы не можете удалять свои сообщения
    Вы не можете голосовать в опросах
    Вы не можете прикреплять файлы к сообщениям
    Вы можете скачивать файлы