2 сезон

iTunes

MVO

1

2 сезон

iTunes

iTunes

1 сезон

RePack

30

Ultimate

ВАЖНО

ИГРА 18+

pack

RePack

MK11
pack

Легкие деньги

RePack

jed

RePack

fifa19

RePack

RDR2

RePack

NEED FOR SPEED™ PAYBACK

4 сезон

9 сезон

Бесстыжие 9 сезон

Все сериалы

все сериалы на PB.wtf

RePack

FAR CRY 5

Anonymous, добрый вечер, мы не успеваем собрать деньги на оплату серверов за декабрь и январь, помогите нам пожалуйста в это трудное время. В качестве благодарности мы отключим Вам всю рекламу на сайте (укажите свой ник в строку Ваше имя)!

×
  
Magnet ссылка

Тот ещё Карлосон! (Сарик Андреасян) [2012 г., фэнтези, комедия, семейный, BDRip-AVC, Оригинал] piratbit.org

Тот ещё Карлосон! через торрент piratbit.org

Размер: 2.15 GB | Добавлен: 8 лет 9 мес. назад | Торрент скачан:607 раз
Скачать  

11-04-2012 08:33 Тот ещё Карлосон! Скачать торрент  

Тот ещё Карлосон!

Год выпуска: 2012
Страна: Россия / Enjoy Movies
Жанр: фэнтези, комедия, семейный
Продолжительность: 01:23:50
Перевод: Оригинал

Режиссер: Сарик Андреасян
Продюссер: Георгий Малков, Сарик Андреасян, Гевонд Андреасян
Сценарий: Сарик Андреасян, Тихон Корнев, Павел Карнаухов

Бюджет: $4 000 000
Премьера в мире: 15 марта 2012



В ролях: Михаил Галустян, Нонна Гришаева, Гоша Куценко, Александр Олешко, Игорь Верник, Мария Семкина, Федя Смирнов, Степан Юрпалов, Олег Табаков, Семен Фурман

Описание: Герой Михаила Галустяна, прозванного в нашем мире за сходство КарлОсоном, живет в волшебном и красочном мире Метриков — пухлых большеухих летающих человечков метрового роста, миссия которых — помогать ребятишкам, которым взрослые, скорее, создают проблемы, нежели решают их. Метрики могут показываться детям, но вынуждены тщательно скрывать факт своего существования от скучных взрослых.

Интерестно:
Съемочный период фильма: июнь – сентябрь 2011 года.
Постановка трюков осуществляется каскадером Владимиром Орловым, известным своими блестящими работами в нашумевших голливудских блокбастерах: «Турист» (2010), «Солт»(2010), «Пираты Карибского моря: Проклятие Черной Жемчужины» (2003) и множестве других, в том числе, российских кинокартин.
В фильме заявлена беспрецедентная по отечественным масштабам компьютерная графика, выполняемая лидерами отрасли в России - Александром Гороховым (CG Factory) и Евгением Барулиным (студия «Улитка»).

Качество: BDRip-AVC
Формат: MKV
Видео кодек: H.264
Аудио кодек: DTS
Видео: MPEG-4 AVC, 2200 Кбит/с, 1024x432, 24.000 кадр/сек, 0.197 b/p
Аудио: DTS, 6 ch, 1510 Кбит/с, 48.0 KHz
Релиз от:




Общее
Уникальный идентификатор : 251297197612908994928011430434289009900 (0xBD0E146C9D614E71B337B6737F2CC4EC)
Полное имя : D:РаздачиTot.eshe.Karloson.2012.x264.BDRip.(AVC).R.G.KinoLibre.mkv
Формат : Matroska
Размер файла : 2,15 Гбайт
Продолжительность : 1 ч. 23 м.
Общий поток : 3677 Кбит/сек
Название фильма : Rip [kubalibre.com] by Tadgik
Дата кодирования : UTC 2012-04-11 06:41:30
Программа кодирования : mkvmerge v4.5.0 ('Speed of Light') сборка от Feb 1 2011 02:10:32
Библиотека кодирования : libebml v1.2.0 + libmatroska v1.1.0

Видео
Идентификатор : 1
Формат : AVC
Формат/Информация : Advanced Video Codec
Профиль формата : High@L3.1
Параметр CABAC формата : Да
Параметр ReFrames формата : 4 кадра
Режим смешивания : Header stripping
Идентификатор кодека : V_MPEG4/ISO/AVC
Продолжительность : 1 ч. 23 м.
Битрейт : 2094 Кбит/сек
Номинальный битрейт : 2200 Кбит/сек
Ширина : 1024 пикс.
Высота : 432 пикс.
Соотношение сторон : 2,35:1
Частота кадров : 24,000 кадр/сек
Цветовое пространство : YUV
Подвыборка цветности : 4:2:0
Битовая глубина : 8 бит
Тип развёртки : Прогрессивная
Бит/(Пиксели*Кадры) : 0.197
Размер потока : 1,23 Гбайт (57%)
Библиотека кодирования : x264 core 92 r1510 33d382a
Настройки программы : cabac=1 / ref=1 / deblock=1:0:0 / analyse=0x3:0x113 / me=hex / subme=2 / psy=1 / psy_rd=0.00:0.00 / mixed_ref=0 / me_range=16 / chroma_me=1 / trellis=0 / 8x8dct=1 / cqm=0 / deadzone=21,11 / fast_pskip=1 / chroma_qp_offset=0 / threads=9 / sliced_threads=0 / nr=0 / decimate=1 / interlaced=0 / constrained_intra=0 / bframes=3 / b_pyramid=2 / b_adapt=1 / b_bias=0 / direct=1 / wpredb=1 / wpredp=0 / keyint=250 / keyint_min=25 / scenecut=40 / intra_refresh=0 / rc=abr / mbtree=0 / bitrate=2200 / ratetol=1.0 / qcomp=0.60 / qpmin=10 / qpmax=51 / qpstep=4 / ip_ratio=1.40 / pb_ratio=1.30 / aq=1:1.00

Аудио
Идентификатор : 2
Формат : DTS
Формат/Информация : Digital Theater Systems
Режим смешивания : Header stripping
Идентификатор кодека : A_DTS
Продолжительность : 1 ч. 23 м.
Вид битрейта : Постоянный
Битрейт : 1510 Кбит/сек
Каналы : 6 каналов
Расположение каналов : Front: L C R, Side: L R, LFE
Частота : 48,0 КГц
Битовая глубина : 24 бит
Метод сжатия : С потерями
Размер потока : 905 Мбайт (41%)
Заголовок : Оригинал

piratbit.org



Скачать Тот ещё Карлосон! через торрент http://pic.kartinco.top/images/6/n9lrt.jpg Скачать фильм Тот ещё Карлосон! через торрент бесплантно в хорошем качестве Описание: Герой Михаила Галустяна, прозванного в нашем мире за сходство КарлОсоном, живет в волшебном и красочном мире Метриков — пухлых ... 10 10 3
Info! Золотая раздача, скачанное не засчитывается.
Торрент: Зарегистрирован [2012-04-11 08:33] · скачан: 607 раз
Статус: √ проверено
Размер: 2.15 GB
Как cкачать? Как скачать Тот ещё Карлосон! через торрент | UTorrent

% Раздел Тема Автор DL S | L
Наши фильмы 2012 [ 1.45 GB ] Тот ещё Карлосон! [2012 BDRip Оригинал от HQ-ViDEO ] ~Relizer~ Скачать
1 | 0
Трейлеры и дополнительные материалы к фильмам [ 107 MB ] Тот ещё Карлосон! [2012 HD] orton Скачать
1 | 0


Последний раз редактировалось: Zormeg (2012-04-11 08:56), всего редактировалось 2 раз(а)

28-11-2019 20:33  

Отключить всю рекламу на сайте

12-04-2012 16:31 Тот ещё Карлосон! Скачать торрент  

Хороший.добрый,веселый фильм :) Мне понравился :Dpiratbit.org



    Дорогой пользователь! Огромная просьба, поблагодарите релизера, оцените раздачу и оставьте свои комментарий, если Вы скачали Тот ещё Карлосон! через торрент бесплатно! Внесите свою лепту в развитие PiratBit!
    Комментировать посты могут только пользователи прошедшие не сложную регистрацию
    Показать сообщения:    

    Тот ещё Карлосон! через торрент
    Скачать бесплатно Тот ещё Карлосон!
    Тот ещё Карлосон! скачать торрент
    Тот ещё Карлосон! смотреть онлайн
    Cкачать фильм Тот ещё Карлосон! бесплатно
    Тот ещё Карлосон! скачать торрент в хорошем качестве
    Тот ещё Карлосон! смотреть онлайн бесплатно в хорошем качестве


    Вы не можете начинать темы
    Вы не можете отвечать на сообщения
    Вы не можете редактировать свои сообщения
    Вы не можете удалять свои сообщения
    Вы не можете голосовать в опросах
    Вы не можете прикреплять файлы к сообщениям
    Вы можете скачивать файлы