Marvel's Avengers Deluxe Edition (супер цена) 159р. Внимание количество ограничено!!!

2 сезон

iTunes

iTunes

1

iTunes

iTunes

iTunes

WEBRip

iTunes

30
pack

Новость дня

ВАЖНО

!!Акция!!

Alien_RageХит недели

RePack

Horizon Zero Dawn

ИГРА 18+

pack

RePack

jed

!!Акция!!

Alien_Rage

RePack

fifa19

RePack

Assassins Creed: Odyssey

RePack

NEED FOR SPEED™ PAYBACK

4 сезон

9 сезон

Бесстыжие 9 сезон

Все сериалы

все сериалы на PB.wtf

RePack

FAR CRY 5
  

Пристрели их / Shoot 'Em Up (Майкл Дэвис) [2007 г., боевик, DVDRip, Профессиональный (многоголосый) (лицензия)] piratbit.org

Пристрели их через торрент piratbit.org

Размер: 1.37 GB | Добавлен: 8 лет 5 мес. назад | Торрент скачан:170 раз
Скачать  

14-04-2012 01:19 Пристрели их Скачать торрент  

Пристрели их / Shoot 'Em Up

[font=Arial]Год выпуска: 2007
Страна: США
Жанр: боевик
Продолжительность: 01:22:59
Перевод: Профессиональный (многоголосый) (Лицензия)

Режиссер: Майкл Дэвис

В ролях: Клайв Оуэн, Моника Беллуччи, Пол Джаматти, Грег Брайк, Стивен МакХэтти, Рамона Прингл, Джейн МакЛин, Сидни Менде-Гибсон, Лукас Менде-Гибсон, Кейлин Йеллоулис, Дэниэл Пилон

Описание: Изгой, живущий воспоминаниями о собственном трагическом прошлом, спасает от верной смерти грудного младенца, оказавшись впутанным в правительственный заговор. Вместе с проституткой, ублажающей фантазии клиентов о грудном вскармливании и берущей на себя заботу о малыше, герой отсчитывает последние деньки двух коррумпированных чиновников.

Качество: DVDRip
Формат: AVI
Видео кодек: XviD
Аудио кодек: AC3
Видео: 672x288 25.00fps 1964Kbps
Аудио#1: Dolby AC3 48000Hz 6ch 384Kbps
Общее
Полное имя : E:\Pristreli.ih.2007.avi
Формат : AVI
Формат/Информация : Audio Video Interleave
Размер файла : 1,37 Гбайт
Продолжительность : 1 ч. 22 м.
Общий поток : 2358 Кбит/сек
Программа кодирования : VirtualDubMod 1.5.10.2 (build 2540/release)
Библиотека кодирования : VirtualDubMod build 2540/release

Видео
Идентификатор : 0
Формат : MPEG-4 Visual
Профиль формата : Advanced Simple@L5
Параметр BVOP формата : 2
Параметр QPel формата : Нет
Параметр GMC формата : Без точки перехода
Параметр матрицы формата : Default (MPEG)
Режим смешивания : Сжатый битовый поток
Идентификатор кодека : XVID
Идентификатор кодека/Подсказка : XviD
Продолжительность : 1 ч. 22 м.
Битрейт : 1965 Кбит/сек
Ширина : 672 пикселя
Высота : 288 пикселей
Соотношение сторон : 2,35:1
Частота кадров : 25,000 кадров/сек
Цветовое пространство : YUV
Субдискретизация насыщенности : 4:2:0
Битовая глубина : 8 бит
Тип развёртки : Прогрессивная
Метод сжатия : С потерями
Бит/(Пиксели*Кадры) : 0.406
Размер потока : 1,14 Гбайт (83%)
Библиотека кодирования : XviD 1.2.0.dev47 (UTC 2006-11-01)

Аудио
Идентификатор : 1
Формат : AC-3
Формат/Информация : Audio Coding 3
Расширение режима : CM (complete main)
Параметр Endianness формата : Big
Идентификатор кодека : 2000
Продолжительность : 1 ч. 22 м.
Вид битрейта : Постоянный
Битрейт : 384 Кбит/сек
Каналы : 6 каналов
Расположение каналов : Front: L C R, Side: L R, LFE
Частота : 48,0 КГц
Битовая глубина : 16 бит
Метод сжатия : С потерями
Задержка видео : 8 мс.
Размер потока : 228 Мбайт (16%)
Выравнивание : Разделение по промежуткам
Продолжительность промежутка : 40 мс. (1,00 видеокадр)
Время предзагрузки промежутка : 500 мс.
piratbit.org



Скачать Пристрели их через торрент http://s019.radikal.ru/i610/1204/54/96fccd07a2ec.png Скачать фильм Пристрели их через торрент бесплантно в хорошем качестве Описание: Изгой, живущий воспоминаниями о собственном трагическом прошлом, спасает от верной смерти грудного младенца, оказавшись впутанным ... 9.6 10 5
Info! Золотая раздача, скачанное не засчитывается.
Торрент: Зарегистрирован [2012-04-14 01:19] · скачан: 170 раз
Статус: √ проверено
Размер: 1.37 GB
Как cкачать? Как скачать Пристрели их через торрент | qTorrent

28-11-2019 20:33  

Отключить всю рекламу на сайте

01-03-2013 15:12 Пристрели их Скачать торрент  

Комрады!!!!!! Раздавайте пож!piratbit.org



    Дорогой пользователь! Огромная просьба, поблагодарите релизера, оцените раздачу и оставьте свои комментарий, если Вы скачали Пристрели их через торрент бесплатно! Внесите свою лепту в развитие PiratBit!
    Комментировать посты могут только пользователи прошедшие не сложную регистрацию
    Показать сообщения:    

    Пристрели их через торрент
    Скачать бесплатно Пристрели их
    Пристрели их скачать торрент
    Пристрели их смотреть онлайн
    Cкачать фильм Пристрели их бесплатно
    Пристрели их скачать торрент в хорошем качестве
    Пристрели их смотреть онлайн бесплатно в хорошем качестве


    Вы не можете начинать темы
    Вы не можете отвечать на сообщения
    Вы не можете редактировать свои сообщения
    Вы не можете удалять свои сообщения
    Вы не можете голосовать в опросах
    Вы не можете прикреплять файлы к сообщениям
    Вы можете скачивать файлы