Anonymous, добрый день, присоединяйтесь к нам в Telegram!, здесь всегда актуальный адрес сайта, оперативная поддержка и многое другое!

>

5.6

iTunes

7.4

iTunes

5.7

MVO

1

7.7

1 сезон

6.8

iTunes

7.3

1 сезон

13

6.7

1 сезон

8.3

RePack

30

ULTIMATE

pack

9.9

Лицензия

ВАЖНО

ИГРА 18+

pack

7.3

RePack

MK11

7.7

RePack

jed

7.8

RePack

fifa19

8.5

RePack

RDR2

RePack

NEED FOR SPEED™ PAYBACK

4 сезон

9 сезон

Бесстыжие 9 сезон

Все сериалы

все сериалы на PB.wtf

RePack

FAR CRY 5

Anonymous, добрый день, мы катастрофически не успеваем собрать деньги на оплату серверов, помогите нам пожалуйста 5,10,15р., для нас важна любая помощь . В качестве благодарности мы отключим Вам всю рекламу на сайте (укажите свой ник в строку Ваше имя)!

×
  
Magnet ссылка

Сообщество / Community / Сезон: 1 (Серии: 1-25 из 25) (Джо Руссо, Энтони Руссо, Тристрам Шапиро) [2009 г., комедия, WEB-DLRip, DVO + оригинал] piratbit.org

Сообщество через торрент piratbit.org

Размер: 8.98 GB | Добавлен: 9 лет 6 мес. назад | Торрент скачан:4 раза
Смотреть онлайн Сообщество | Скачать    Ребята, помогите собрать деньги на оплату серверов!!!

15-04-2012 10:58 Сообщество Скачать торрент  

Сообщество / Community

Год выпуска: 2009
Страна: США
Жанр: комедия
Продолжительность: 25 х ~00:21:00
Перевод: Профессиональный (двухголосый закадровый) + оригинал
Субтитры: отсутствуют

Режиссер: Джо Руссо, Энтони Руссо, Тристрам Шапиро

В ролях: Джоэль МакХэйл, Джиллиан Джейкобс, Дэнни Пуди, Ивет Николь Браун, Чеви Чейз, Дональд Гловер, Элисон Бри, Кен Йонг, Эрик Кристиан Олсен, Джим Раш

Описание: Сериал рассказывает о студенческом сообществе, которое состоит из школьных лузеров, недавно разведенных домохозяек и пожилых людей, старающихся сохранить трезвый ум.

Качество: WEB-DLRip
Формат: AVI
Видео кодек: XviD
Аудио кодек: AC3
Видео: 720x400 (1.80:1), 23.976 fps, XviD build 50 ~1999 kbps avg, 0.29 bit/pixel
Аудио#1: 48 kHz, AC3 Dolby Digital, 2/0 (L,R) ch, ~192 kbps |rus|
Аудио#2: 48 kHz, AC3 Dolby Digital, 2/0 (L,R) ch, ~192 kbps |eng|


Общее
Формат : AVI
Формат/Информация : Audio Video Interleave
Размер файла : 436 Мбайт
Продолжительность : 25 м.
Общий поток : 2398 Кбит/сек
Программа кодирования : VirtualDubMod 1.5.10.2 (build 2540/release)
Библиотека кодирования : VirtualDubMod build 2540/release

Видео
Идентификатор : 0
Формат : MPEG-4 Visual
Профиль формата : Advanced Simple@L5
Параметр BVOP формата : 1
Параметр QPel формата : Нет
Параметр GMC формата : Без точки перехода
Параметр матрицы формата : Default (H.263)
Идентификатор кодека : XVID
Идентификатор кодека/Подсказка : XviD
Продолжительность : 25 м.
Битрейт : 2000 Кбит/сек
Ширина : 720 пикс.
Высота : 400 пикс.
Соотношение сторон : 16:9
Частота кадров : 23,976 кадр/сек
Цветовое пространство : YUV
Подвыборка цветности : 4:2:0
Битовая глубина : 8 бит
Тип развёртки : Прогрессивная
Метод сжатия : С потерями
Бит/(Пиксели*Кадры) : 0.290
Размер потока : 364 Мбайт (83%)
Библиотека кодирования : XviD 1.2.1 (UTC 2008-12-04)

Аудио #1
Идентификатор : 1
Формат : AC-3
Формат/Информация : Audio Coding 3
Расширение режима : CM (complete main)
Идентификатор кодека : 2000
Продолжительность : 25 м.
Вид битрейта : Постоянный
Битрейт : 192 Кбит/сек
Каналы : 2 канала
Расположение каналов : Front: L R
Частота : 48,0 КГц
Битовая глубина : 16 бит
Метод сжатия : С потерями
Размер потока : 34,9 Мбайт (8%)
Выравнивание : Разделение по промежуткам
Продолжительность промежутка : 42 мс. (1,00 видеокадр)
Время предзагрузки промежутка : 500 ms

Аудио #2
Идентификатор : 2
Формат : AC-3
Формат/Информация : Audio Coding 3
Расширение режима : CM (complete main)
Идентификатор кодека : 2000
Продолжительность : 25 м.
Вид битрейта : Постоянный
Битрейт : 192 Кбит/сек
Каналы : 2 канала
Расположение каналов : Front: L R
Частота : 48,0 КГц
Битовая глубина : 16 бит
Метод сжатия : С потерями
Размер потока : 34,9 Мбайт (8%)
Выравнивание : Разделение по промежуткам
Продолжительность промежутка : 42 мс. (1,00 видеокадр)
Время предзагрузки промежутка : 500 ms
piratbit.org



Скачать Сообщество через торрент http://s004.radikal.ru/i205/1001/29/b0d932e31754.jpg Скачать, смотреть онлайн Сообщество бесплантно в хорошем качестве Описание: Сериал рассказывает о студенческом сообществе, которое состоит из школьных лузеров, недавно разведенных домохозяек и пожилых ... 9.7 10 3
Info! Золотая раздача, скачанное не засчитывается.
Торрент: Зарегистрирован [2012-04-15 10:58] · скачан: 4 раз
Статус: √ проверено
Размер: 8.98 GB
Как cкачать? Как скачать Сообщество через торрент | UTorrent

% Раздел Тема Автор DL S | L
Зарубежные сериалы [ 2.62 GB ] Сообщество / Community / Сезон: 6 / Серии: 1-3 из 13 [2015 WEB-DL 720p] DVO [Кубик в Кубе] + Original Messa-fan Скачать
1 | 0


Последний раз редактировалось: markfiter (2012-04-15 11:23), всего редактировалось 1 раз

28-11-2019 20:33  

Отключить всю рекламу на сайте

21-04-2012 03:47 Сообщество Скачать торрент  

как сериал?piratbit.org



08-05-2012 14:29 Сообщество Скачать торрент  

встаньте на раздачу пожалуйста.piratbit.org



12-07-2014 05:46 Сообщество Скачать торрент  

Кто нить встаньте на раздачу!!!! Плизpiratbit.org



    Дорогой пользователь! Огромная просьба, поблагодарите релизера, оцените раздачу и оставьте свои комментарий, если Вы скачали Сообщество через торрент бесплатно!
    Комментировать посты могут только пользователи прошедшие не сложную регистрацию
    Показать сообщения:    

    Сообщество через торрент
    Скачать бесплатно Сообщество
    Сообщество скачать торрент
    Сообщество смотреть онлайн
    Cкачать фильм Сообщество бесплатно
    Сообщество скачать торрент в хорошем качестве
    Сообщество смотреть онлайн бесплатно в хорошем качестве


    Вы не можете начинать темы
    Вы не можете отвечать на сообщения
    Вы не можете редактировать свои сообщения
    Вы не можете удалять свои сообщения
    Вы не можете голосовать в опросах
    Вы не можете прикреплять файлы к сообщениям
    Вы можете скачивать файлы