Ссылка на приватное зеркало нашего сайта всего за 1$. Внимание количество ограничено!!!

2 сезон

iTunes

iTunes

1

iTunes

iTunes

iTunes

WEBRip

iTunes

30
pack

Вам бонус

ВАЖНО

!!Акция!!

Alien_RageХит недели

RePack

Horizon Zero Dawn

ИГРА 18+

pack

RePack

jed

!!Акция!!

Alien_Rage

RePack

fifa19

RePack

Assassins Creed: Odyssey

RePack

NEED FOR SPEED™ PAYBACK

4 сезон

9 сезон

Бесстыжие 9 сезон

Все сериалы

все сериалы на PB.wtf

RePack

FAR CRY 5
  

Отступники / The Departed (Мартин Скорсезе) [2006, триллер, драма, криминал, детектив, HDRip-AVC] DUB / от R.G. nICE Films piratbit.org

Отступники через торрент piratbit.org

Раздают: 1 [ 0 KB/s ]
Размер: 2.18 GB | Добавлен: 8 лет 5 мес. назад | Торрент скачан:1469 раз
Скачать  

17-04-2012 19:48 Отступники Скачать торрент  

Отступники / The Departed
«Lies. Betrayal. Sacrifice. How far will you take it?»



Год выпуска: 2006
Страна: США, Гонконг
Жанр: триллер, драма, криминал, детектив
Продолжительность: 02:31:19
Перевод: Профессиональный (полное дублирование)

Режиссер: Мартин Скорсезе

В ролях: Леонардо ДиКаприо, Мэтт Дэймон, Джек Николсон, Марк Уолберг, Мартин Шин, Рэй Уинстон, Вера Фармига, Энтони Андерсон, Алек Болдуин, Кевин Корригэн

Описание: Два лучших выпускника полицейской академии оказались по разные стороны баррикады: один из них — агент мафии в рядах правоохранительных органов, другой — «крот», внедрённый в мафию. Каждый считает своим долгом обнаружить и уничтожить противника, но постоянная жизнь в искажённых реалиях меняет внутренний мир героев.

|

Качество: HDRip-AVC (Rip by Phoenix)
Исходник: BDRip 1080p
Формат: MKV
Видео кодек: H.264
Аудио кодек: AC3
Видео: H.264, 1024*432, 23,976 кадр/сек, 1613 Кбит/сек, 0.152 Бит/(Пиксели*Кадры)
Аудио: AC3, 448 Кбит/сек, 6 каналов, 48,0 КГц

Код:

---[NoImage] x264 [info]: frame I:3021  Avg QP:16.67  size: 53887  PSNR Mean Y:46.84 U:49.02 V:52.35 Avg:47.63 Global:47.27
---[NoImage] x264 [info]: frame P:88850 Avg QP:19.34  size: 13739  PSNR Mean Y:44.52 U:47.29 V:50.24 Avg:45.41 Global:44.92
---[NoImage] x264 [info]: frame B:125809 Avg QP:21.23  size:  3558  PSNR Mean Y:44.43 U:48.06 V:52.34 Avg:45.42 Global:44.65
---[NoImage] x264 [info]: consecutive B-frames: 12.7% 31.5% 14.7% 18.3% 16.9%  1.5%  4.4%

Код:

Общее
Уникальный идентификатор         : 248107013362520978914269708932294308210 (0xBAA7AC327208536F836D3092C86EF172)
Полное имя                       : E:\Video\R.G. nICE Films (Rips by Phoenix)\Отступники Rip by Phoenix.mkv
Формат                           : Matroska
Размер файла                     : 2,18 Гбайт
Продолжительность                : 2 ч. 31 м.
Общий поток                      : 2063 Кбит/сек
Дата кодирования                 : UTC 2012-04-17 18:05:32
Программа кодирования            : mkvmerge v5.2.1 ('A Far Off Place') built on Jan  2 2012 23:21:10
Библиотека кодирования           : libebml v1.2.3 + libmatroska v1.3.0

Видео
Идентификатор                    : 1
Формат                           : AVC
Формат/Информация                : Advanced Video Codec
Профиль формата                  : High@L4.1
Параметр CABAC формата           : Да
Параметр ReFrames формата        : 9 кадры
Идентификатор кодека             : V_MPEG4/ISO/AVC
Продолжительность                : 2 ч. 31 м.
Битрейт                          : 1613 Кбит/сек
Ширина                           : 1024 пикс.
Высота                           : 432 пикс.
Соотношение сторон               : 2,35:1
Частота кадров                   : 23,976 кадр/сек
Цветовое пространство            : YUV
Подвыборка цветности             : 4:2:0
Битовая глубина                  : 8 бит
Тип развёртки                    : Прогрессивная
Бит/(Пиксели*Кадры)              : 0.152
Размер потока                    : 1,66 Гбайт (76%)
Заголовок                        : Rip by Phoenix
Библиотека кодирования           : x264 core 120 r2164 da19765
Настройки программы              : cabac=1 / ref=10 / deblock=1:-3:-3 / analyse=0x3:0x113 / me=umh / subme=9 / psy=1 / psy_rd=1.00:0.00 / mixed_ref=1 / me_range=32 / chroma_me=1 / trellis=2 / 8x8dct=1 / cqm=0 / deadzone=21,11 / fast_pskip=1 / chroma_qp_offset=-2 / threads=4 / sliced_threads=0 / nr=0 / decimate=1 / interlaced=0 / bluray_compat=0 / constrained_intra=0 / bframes=6 / b_pyramid=1 / b_adapt=1 / b_bias=0 / direct=1 / weightb=1 / open_gop=0 / weightp=2 / keyint=240 / keyint_min=23 / scenecut=40 / intra_refresh=0 / rc_lookahead=40 / rc=2pass / mbtree=1 / bitrate=1613 / ratetol=1.0 / qcomp=0.70 / qpmin=10 / qpmax=51 / qpstep=4 / cplxblur=20.0 / qblur=0.5 / ip_ratio=1.40 / aq=1:1.00
Язык                             : English

Аудио
Идентификатор                    : 2
Формат                           : AC-3
Формат/Информация                : Audio Coding 3
Расширение режима                : CM (complete main)
Идентификатор кодека             : A_AC3
Продолжительность                : 2 ч. 31 м.
Вид битрейта                     : Постоянный
Битрейт                          : 448 Кбит/сек
Канал(ы)                         : 6 канала(ов)
Расположение каналов             : Front: L C R, Side: L R, LFE
Частота                          : 48,0 КГц
Битовая глубина                  : 16 бит
Метод сжатия                     : С потерями
Размер потока                    : 485 Мбайт (22%)
Заголовок                        : Дубляж
Язык                             : Russian

скриншот  скриншот  скриншот  скриншот  скриншот  скриншот  скриншот  скриншот  скриншот  скриншот  скриншот  скриншот  
piratbit.org



Скачать Отступники через торрент http://s002.youpic.su/pictures/1334606400/aff7745e53ac332e4bc9021ac2ba09e9.png Скачать фильм Отступники через торрент бесплантно в хорошем качестве Описание: Два лучших выпускника полицейской академии оказались по разные стороны баррикады: один из них — агент мафии в рядах ... 10 10 27
Info! Золотая раздача, скачанное не засчитывается.
Торрент: Зарегистрирован [2012-04-17 19:48] · скачан: 1 469 раз
Статус: √ проверено
Размер: 2.18 GB
Как cкачать? Как скачать Отступники через торрент | qTorrent



Последний раз редактировалось: Phoenix (2012-05-14 07:24), всего редактировалось 2 раз(а)

28-11-2019 20:33  

Отключить всю рекламу на сайте

17-04-2012 20:05 Отступники Скачать торрент  

Цитата:

Это полная версия фильма, в дубляже 20 секунд переведены Гланцом.

piratbit.org



17-04-2012 20:31 Отступники Скачать торрент  

То что доктор прописал! Спасибоpiratbit.org



23-04-2012 20:24 Отступники Скачать торрент  

супер!!!!piratbit.org



25-06-2013 21:02 Отступники Скачать торрент  

Отличнейший фильм.piratbit.org



    Дорогой пользователь! Огромная просьба, поблагодарите релизера, оцените раздачу и оставьте свои комментарий, если Вы скачали Отступники через торрент бесплатно! Внесите свою лепту в развитие PiratBit!
    Комментировать посты могут только пользователи прошедшие не сложную регистрацию
    Показать сообщения:    

    Отступники через торрент
    Скачать бесплатно Отступники
    Отступники скачать торрент
    Отступники смотреть онлайн
    Cкачать фильм Отступники бесплатно
    Отступники скачать торрент в хорошем качестве
    Отступники смотреть онлайн бесплатно в хорошем качестве


    Вы не можете начинать темы
    Вы не можете отвечать на сообщения
    Вы не можете редактировать свои сообщения
    Вы не можете удалять свои сообщения
    Вы не можете голосовать в опросах
    Вы не можете прикреплять файлы к сообщениям
    Вы можете скачивать файлы