Anonymous, добрый день, присоединяйтесь к нам в Telegram!, здесь всегда актуальный адрес сайта, оперативная поддержка и многое другое!

>

5.6

iTunes

7.4

iTunes

5.7

MVO

1

7.7

1 сезон

6.8

iTunes

7.3

1 сезон

13

6.7

1 сезон

8.3

RePack

30

ULTIMATE

pack

9.9

Лицензия

ВАЖНО

ИГРА 18+

pack

7.3

RePack

MK11

7.7

RePack

jed

7.8

RePack

fifa19

8.5

RePack

RDR2

RePack

NEED FOR SPEED™ PAYBACK

4 сезон

9 сезон

Бесстыжие 9 сезон

Все сериалы

все сериалы на PB.wtf

RePack

FAR CRY 5

Anonymous, добрый день, мы катастрофически не успеваем собрать деньги на оплату серверов, помогите нам пожалуйста 5,10,15р., для нас важна любая помощь . В качестве благодарности мы отключим Вам всю рекламу на сайте (укажите свой ник в строку Ваше имя)!

×
  
Magnet ссылка

На виду / В простом виде / In Plain Sight / Сезон: 1 (Серии: 1-12 из 12) (Дэн Лернер, Энди Волк, Брайан Спайсер) [2008 г., триллер, драма, криминал, детектив, WEB-DLRip, Профессиональный (многоголосый закадровый) + оригинал] piratbit.org

На виду через торрент piratbit.org

Размер: 5.52 GB | Добавлен: 9 лет 5 мес. назад | Торрент скачан:3 раза
Смотреть онлайн На виду | Скачать    Ребята, помогите собрать деньги на оплату серверов!!!

23-04-2012 12:41 На виду Скачать торрент  

На виду / В простом виде / In Plain Sight

Год выпуска: 2008
Страна: США
Жанр: триллер, драма, криминал, детектив
Продолжительность: 12 х ~00:42:00
Перевод: Профессиональный (многоголосый закадровый) + оригинал

Режиссер: Дэн Лернер, Энди Волк, Брайан Спайсер

В ролях: Мэри МакКормак, Фред Уэллер, Николь Хильтц, Пол Бен-Виктор, Кристиан де ла Фуэнте, Лесли Энн Уоррен, Тодд Уильямс, Холли Мэйплс, Джошуа Малина, Артур Вулдридж

Описание: Сериал повествует о жизни федерального пристава программы по защите свидетелей, которая вынуждена скрывать свою рискованную, оказывающую большое влияние работу от своей семьи. Для большинства, Мэри Шэнон всего лишь высоко-оплачиваемый постовой, в то время как её настоящая работа намного опаснее. Она присматривает за свидетелями федерального правосудия, которые перемещаются в новое местоположение в рамках программы по защите свидетелей. Её основная задача обеспечение их безопасности.

Качество: WEB-DLRip
Формат: AVI
Видео кодек: XviD
Аудио кодек: MP3
Видео: 720x400 (1.80:1), 23.976 fps, XviD MPEG-4 ~1185 kbps avg, 0.17 bit/pixel
Аудио#1: 48 kHz, MPEG Layer 3, 2 ch, ~128.00 kbps avg |rus|
Аудио#2: 48 kHz, MPEG Layer 3, 2 ch, ~128.00 kbps avg |eng|
Субтитры: отсутствуют


Общее
Формат : AVI
Формат/Информация : Audio Video Interleave
Размер файла : 700 Мбайт
Продолжительность : 1 ч. 7 м.
Общий поток : 1456 Кбит/сек
Программа кодирования : VirtualDubMod 1.6.0.0 SURROUND (build 2560/release)
Библиотека кодирования : VirtualDubMod build 2560/release

Видео
Идентификатор : 0
Формат : MPEG-4 Visual
Профиль формата : Advanced Simple@L5
Параметр BVOP формата : 2
Параметр QPel формата : Нет
Параметр GMC формата : Без точки перехода
Параметр матрицы формата : Default (H.263)
Режим смешивания : Сжатый битовый поток
Идентификатор кодека : XVID
Идентификатор кодека/Подсказка : XviD
Продолжительность : 1 ч. 7 м.
Битрейт : 1186 Кбит/сек
Ширина : 720 пикс.
Высота : 400 пикс.
Соотношение сторон : 16:9
Частота кадров : 23,976 кадр/сек
Цветовое пространство : YUV
Подвыборка цветности : 4:2:0
Битовая глубина : 8 бит
Тип развёртки : Прогрессивная
Метод сжатия : С потерями
Бит/(Пиксели*Кадры) : 0.172
Размер потока : 570 Мбайт (81%)
Библиотека кодирования : XviD 1.2.1 (UTC 2008-12-04)

Аудио #1
Идентификатор : 1
Формат : MPEG Audio
Версия формата : Version 1
Профиль формата : Layer 3
Идентификатор кодека : 55
Идентификатор кодека/Подсказка : MP3
Продолжительность : 1 ч. 7 м.
Вид битрейта : Постоянный
Битрейт : 128 Кбит/сек
Каналы : 2 канала
Частота : 48,0 КГц
Метод сжатия : С потерями
Размер потока : 61,5 Мбайт (9%)
Выравнивание : Соединение по промежуткам
Продолжительность промежутка : 42 мс. (1,00 видеокадр)
Время предзагрузки промежутка : 504 ms

Аудио #2
Идентификатор : 2
Формат : MPEG Audio
Версия формата : Version 1
Профиль формата : Layer 3
Идентификатор кодека : 55
Идентификатор кодека/Подсказка : MP3
Продолжительность : 1 ч. 7 м.
Вид битрейта : Постоянный
Битрейт : 128 Кбит/сек
Каналы : 2 канала
Частота : 48,0 КГц
Метод сжатия : С потерями
Размер потока : 61,5 Мбайт (9%)
Выравнивание : Соединение по промежуткам
Продолжительность промежутка : 42 мс. (1,00 видеокадр)
Время предзагрузки промежутка : 504 ms
Библиотека кодирования : LAME3.98r
Настройки программы : -m s -V 4 -q 2 -lowpass 17 -b 128
piratbit.org



Скачать На виду через торрент http://i31.fastpic.ru/big/2011/1219/54/fb84b23b3325510addbac9b37d0b4d54.png Скачать, смотреть онлайн На виду бесплантно в хорошем качестве Описание: Сериал повествует о жизни федерального пристава программы по защите свидетелей, которая вынуждена скрывать свою рискованную, ... 4.8 10 4
Info! Золотая раздача, скачанное не засчитывается.
Торрент: Зарегистрирован [2012-04-23 12:41] · скачан: 3 раз
Статус: √ проверено
Размер: 5.52 GB
Как cкачать? Как скачать На виду через торрент | UTorrent

28-11-2019 20:33  

Отключить всю рекламу на сайте

    Дорогой пользователь! Огромная просьба, поблагодарите релизера, оцените раздачу и оставьте свои комментарий, если Вы скачали На виду через торрент бесплатно!
    Комментировать посты могут только пользователи прошедшие не сложную регистрацию
    Показать сообщения:    

    На виду через торрент
    Скачать бесплатно На виду
    На виду скачать торрент
    На виду смотреть онлайн
    Cкачать фильм На виду бесплатно
    На виду скачать торрент в хорошем качестве
    На виду смотреть онлайн бесплатно в хорошем качестве


    Вы не можете начинать темы
    Вы не можете отвечать на сообщения
    Вы не можете редактировать свои сообщения
    Вы не можете удалять свои сообщения
    Вы не можете голосовать в опросах
    Вы не можете прикреплять файлы к сообщениям
    Вы можете скачивать файлы