новый адрес
Мега распродажа FORZA HORIZON 4 ULTIMATE+ВСЕ DLC+ОНЛАЙН всего за 499р. 349 руб. (супер цена). Внимание количество ограничено!!!

iTunes

1+1

iTunes

мы

iTunes

1

iTunes

Чернобыль

iTunes

Ральф против интернета

Лицензия

ПШазам

Лицензия

Игра престолов

Лицензия

30
pack

ВАЖНО

!!Акция!!

Alien_RageХит недели

RePack

Resident Evil 21

ИГРА 18+

pack

RePack

Metro:Exodus

!!Акция!!

Alien_Rage

RePack

fifa19

RePack

Assassins Creed: Odyssey

RePack

NEED FOR SPEED™ PAYBACK

3 сезон

9 сезон

Бесстыжие 9 сезон

Все сериалы

все сериалы на PB.wtf

RePack

FAR CRY 5
Ребята, катастрофически не хватает 1900р. для оплаты серверов за Октябрь (всвязи с блокировками трафик упал в 3 раза), 1-2р., выручайте.
  

Тор: Легенда викингов / Legends of Valhalla: Thor (Оускар Йоунассон, Тоби Генкель, Гуннар Карлссон / Oskar Jonasson, Toby Genkel, Gunnar Karlsson) [2011, мультфильм, комедия, приключения, семейный, DVD5] R5 piratbit.org

Тор: Легенда викингов через торрент piratbit.org

Размер: 3.85 GB | Добавлен: 7 лет 6 мес. назад | Торрент скачан:315 раз
Скачать  

04-05-2012 20:07 Тор: Легенда викингов Скачать торрент  


Тор: Легенда викингов / Legends of Valhalla: Thor
Страна: Германия, Исландия, Ирландия
Студия: CAOZ hf., Magma Films Ltd. (I), Ulysses
Жанр: мультфильм, комедия, приключения, семейный
Год выпуска: 2011
Мировая премьера: 14 октября 2011
Российская премьера: 22 марта 2012, 3D
Дата выхода DVD: 26 апреля 2012
Дата выхода Blu-Ray: 15 мая 2012
Продолжительность: 01:19:36
Перевод: Профессиональный (дублированный) [Лицензия]
Cубтитры: нет
Режиссер: Оускар Йоунассон, Тоби Генкель, Гуннар Карлссон / Oskar Jonasson, Toby Genkel, Gunnar Karlsson
Роли озвучивали: Джастин Грегг, Пол Тайлак, Николя Кохлан, Лиз Ллойд, Алан Стэнфорд, Эммет Скэнлэн, Дж. Дрю Лукас, Мэри Мюррэй, Леса Турман, Гари Хецлер
Описание: Самоуверенный подросток, в арсенале которого находятся магическое оружие, присоединяется к борьбе против злой королевы и ее армии великанов.
Бонусы: нет

Релиз группы:
Качество: DVD5 R5
Формат: DVD-Video
Видео кодек: MPEG2
Аудио кодек: AC3
Видео: PAL 16:9 (720x576(0.569)) MPEG Video, 25,000 кадр/сек, 5900 Кбит/сек
Аудио: Russian (Dolby AC3, 6 ch) 448 Кбит/сек, 48,0 КГц



Title:
Size: 3.85 Gb ( 4 037 752 KBytes ) - DVD-5
Enabled regions: 1, 2, 3, 4, 5, 6, 7, 8

VTS_01 :
Play Length: 01:19:36
Video: PAL 16:9 (720x576) VBR, Auto Letterboxed
Audio:
Russian (Dolby AC3, 6 ch)

Menu Video:
PAL 16:9 (720x576) VBR
Auto Letterboxed
Menu Audio:
Not specified (Dolby AC3, 2 ch)
Menu Subtitles:
Not specified
Menu Russian Language Unit :
Root Menu
Общее
Полное имя : J:\Новинки 2012\Tor.legenda.vikingov.2011.DVD5\VIDEO_TS\VTS_01_2.VOB
Формат : MPEG-PS
Размер файла : 1024 Мбайт
Продолжительность : 22 м.
Режим общего битрейта : Переменный
Общий поток : 6476 Кбит/сек

Видео
Идентификатор : 224 (0xE0)
Формат : MPEG Video
Версия формата : Version 2
Профиль формата : Main@Main
Параметр BVOP формата : Да
Параметр матрицы формата : Выборочная
Параметр GOP формата : M=2, N=12
Продолжительность : 22 м.
Вид битрейта : Переменный
Битрейт : 5900 Кбит/сек
Максимальный битрейт : 8000 Кбит/сек
Ширина : 720 пикселей
Высота : 576 пикселей
Соотношение сторон : 16:9
Частота кадров : 25,000 кадров/сек
Стандарт вещания : PAL
Цветовое пространство : YUV
Субдискретизация насыщенности : 4:2:0
Битовая глубина : 8 бит
Тип развёртки : Чересстрочная
Порядок развёртки : Верхнее поле первое
Метод сжатия : С потерями
Бит/(Пиксели*Кадры) : 0.569
Размер потока : 933 Мбайт (91%)

Аудио
Идентификатор : 189 (0xBD)-128 (0x80)
Формат : AC-3
Формат/Информация : Audio Coding 3
Расширение режима : CM (complete main)
Параметр Endianness формата : Big
Режим смешивания : DVD-Video
Продолжительность : 22 м.
Вид битрейта : Постоянный
Битрейт : 448 Кбит/сек
Каналы : 6 каналов
Расположение каналов : Front: L C R, Side: L R, LFE
Частота : 48,0 КГц
Битовая глубина : 16 бит
Метод сжатия : С потерями
Задержка видео : -216 мс.
Размер потока : 70,8 Мбайт (7%)










piratbit.org



Скачать Тор: Легенда викингов через торрент http://i4.imageban.ru/out/2012/05/04/7ca3b7720b396651a56934f34908a68e.png Скачать фильм Тор: Легенда викингов через торрент бесплантно в хорошем качестве Описание: Самоуверенный подросток, в арсенале которого находятся магическое оружие, присоединяется к борьбе против злой королевы и ее армии ... 10 10 2
Info! Золотая раздача, скачанное не засчитывается.
Торрент: Зарегистрирован [2012-05-04 20:07] · скачан: 315 раз
Статус: √ проверено
Размер: 3.85 GB
Как cкачать? Как скачать Тор: Легенда викингов через торрент | qTorrent


>> Регистрируемся здесь <<






Отзывы и комментарии о схеме читаем и пишем здесь: ---> Отзывы и комментарии о схеме

Новые благодарочки в телеграм довольных пользователей:
скриншот   скриншот   скриншот   скриншот   скриншот

04-05-2012 21:19 Тор: Легенда викингов Скачать торрент  

Почему рейтинг такой маленький, или мульт действительно неоченьpiratbit.org



    Дорогой пользователь! Огромная просьба, поблагодарите релизера, оцените раздачу и оставьте свои комментарий, если Вы скачали Тор: Легенда викингов через торрент бесплатно! Внесите свою лепту в развитие PiratBit!
    Комментировать посты могут только пользователи прошедшие не сложную регистрацию
    Показать сообщения:    

    Тор: Легенда викингов через торрент
    Скачать бесплатно Тор: Легенда викингов
    Тор: Легенда викингов скачать торрент
    Тор: Легенда викингов смотреть онлайн
    Cкачать фильм Тор: Легенда викингов бесплатно
    Тор: Легенда викингов скачать торрент в хорошем качестве
    Тор: Легенда викингов смотреть онлайн бесплатно в хорошем качестве


    Вы не можете начинать темы
    Вы не можете отвечать на сообщения
    Вы не можете редактировать свои сообщения
    Вы не можете удалять свои сообщения
    Вы не можете голосовать в опросах
    Вы не можете прикреплять файлы к сообщениям
    Вы можете скачивать файлы