Ссылка на приватное зеркало всего за 1$. Внимание количество ограничено!!!

iTunes

iTunes

iTunes

1

iTunes

iTunes

iTunes

iTunes

iTunes

30
pack

Новость дня

ВАЖНО

!!Акция!!

Alien_RageХит недели

RePack

Resident Evil 21

ИГРА 18+

pack

RePack

jed

!!Акция!!

Alien_Rage

RePack

fifa19

RePack

Assassins Creed: Odyssey

RePack

NEED FOR SPEED™ PAYBACK

4 сезон

9 сезон

Бесстыжие 9 сезон

Все сериалы

все сериалы на PB.wtf

RePack

FAR CRY 5
  

Схватка / The Grey (Джо Карнахан) [2012 г., боевик, триллер, драма, приключения, BD-Remux] / US Transfer piratbit.org

Схватка через торрент piratbit.org

Размер: 32.58 GB | Добавлен: 7 лет 10 мес. назад | Торрент скачан:13 раз
Скачать  

05-05-2012 18:17 Схватка Скачать торрент  

Схватка / The Grey

Год выпуска: 2012
Страна: США
Жанр: боевик, триллер, драма, приключения
Продолжительность: 01:57:05
Перевод: Профессиональный (полное дублирование) [Лицензия]

Режиссер: Джо Карнахан

Лицам до 17 лет обязательно присутствие взрослого


В ролях: Лиам Нисон, Фрэнк Грилло, Дермот Малруни, Даллас Робертс, Джо Андерсон, Нонсо Анози, Джеймс Бэдж Дэйл, Бен Брэй, Энн Опеншоу, Питер Гиргес, Владимир Антоник, Даниил Эльдаров

Описание: На Аляске потерпел крушение самолет, и оставшиеся в живых пассажиры оказались в плену безлюдной снежной пустыни, где только стая волков скрашивает пейзаж. Люди хотят выжить любой ценой, и теперь им предстоит смертельная схватка...

Качество: BD-Remux
Формат: BDAV
Видео кодек: AVC
Аудио кодек: DTS
Видео: AVC, 1920x1080 (16:9), 23.976 fps, 33.3 Mbps (0.670 bit/pixel)
Аудио#1: DTS MA / Core, 48.0 KHz, 6 ch, 1 561 Kbps / 1 510 Kbps, VBR [Дубляж, RUS BD]
Аудио#2: DTS MA / Core, 48.0 KHz, 6 ch, 3 028 Kbps / 1 510 Kbps, VBR [Original]
Аудио#3: AC-3 Dolby Digital, 48.0 KHz, 2 ch, 192 Kbps, CBR [Commentary]
Субтитры: Russian, EnglishРелиз от:


скриншот   скриншот   скриншот   скриншот  

Код:

Общее
Идентификатор                            : 1 (0x1)
Полное имя                               : E:\THE_GREY_2012_BDREMUX_HDCLUB\BDMV\STREAM\00000.m2ts
Формат                                   : BDAV
Формат/Информация                        : Blu-ray Video
Размер файла                             : 32,6 Гбайт
Продолжительность                        : 1 ч. 57 м.
Режим общего битрейта                    : Переменный
Общий поток                              : 39,7 Мбит/сек
Максимальный общий битрейт               : 35,5 Мбит/сек

Видео
Идентификатор                            : 4113 (0x1011)
Идентификатор меню                       : 1 (0x1)
Формат                                   : AVC
Формат/Информация                        : Advanced Video Codec
Профиль формата                          : High@L4.1
Параметр CABAC формата                   : Да
Параметр ReFrames формата                : 4 кадра
Идентификатор кодека                     : 27
Продолжительность                        : 1 ч. 57 м.
Вид битрейта                             : Переменный
Битрейт                                  : 33,3 Мбит/сек
Максимальный битрейт                     : 35,0 Мбит/сек
Ширина                                   : 1920 пикселей
Высота                                   : 1080 пикселей
Соотношение сторон                       : 16:9
Частота кадров                           : 23,976 кадра/сек
Цветовое пространство                    : YUV
Субдискретизация насыщенности            : 4:2:0
Битовая глубина                          : 8 бит
Тип развёртки                            : Прогрессивная
Бит/(Пиксели*Кадры)                      : 0.670
Размер потока                            : 27,4 Гбайт (84%)

Аудио #1
Идентификатор                            : 4352 (0x1100)
Идентификатор меню                       : 1 (0x1)
Формат                                   : DTS
Формат/Информация                        : Digital Theater Systems
Профиль формата                          : MA / Core
Режим смешивания                         : Stream extension
Идентификатор кодека                     : 134
Продолжительность                        : 1 ч. 57 м.
Вид битрейта                             : Переменный
Битрейт                                  : 1561 Кбит/сек / 1510 Кбит/сек
Каналы                                   : 6 каналов
Расположение каналов                     : Front: L C R, Side: L R, LFE
Частота                                  : 48,0 КГц
Битовая глубина                          : 16 бит
Метод сжатия                             : Без потерь / Lossy
Язык                                     : Russian

Аудио #2
Идентификатор                            : 4353 (0x1101)
Идентификатор меню                       : 1 (0x1)
Формат                                   : DTS
Формат/Информация                        : Digital Theater Systems
Профиль формата                          : MA / Core
Режим смешивания                         : Stream extension
Идентификатор кодека                     : 134
Продолжительность                        : 1 ч. 57 м.
Вид битрейта                             : Переменный
Битрейт                                  : 3028 Кбит/сек / 1510 Кбит/сек
Каналы                                   : 6 каналов
Расположение каналов                     : Front: L C R, Side: L R, LFE
Частота                                  : 48,0 КГц
Битовая глубина                          : 24 бит
Метод сжатия                             : Без потерь / Lossy
Язык                                     : English

Аудио #3
Идентификатор                            : 4354 (0x1102)
Идентификатор меню                       : 1 (0x1)
Формат                                   : AC-3
Формат/Информация                        : Audio Coding 3
Профиль формата                          : Dolby Digital
Расширение режима                        : CM (complete main)
Параметр Endianness формата              : Big
Идентификатор кодека                     : 129
Продолжительность                        : 1 ч. 57 м.
Вид битрейта                             : Постоянный
Битрейт                                  : 192 Кбит/сек
Каналы                                   : 2 канала
Расположение каналов                     : Front: L R
Частота                                  : 48,0 КГц
Битовая глубина                          : 16 бит
Метод сжатия                             : С потерями
Размер потока                            : 161 Мбайт (0%)
Язык                                     : English

Текст #1
Идентификатор                            : 4608 (0x1200)
Идентификатор меню                       : 1 (0x1)
Формат                                   : PGS
Идентификатор кодека                     : 144
Язык                                     : Russian

Текст #2
Идентификатор                            : 4609 (0x1201)
Идентификатор меню                       : 1 (0x1)
Формат                                   : PGS
Идентификатор кодека                     : 144
Язык                                     : English

piratbit.org



Скачать Схватка через торрент http://pic.kartinco.top/images/2000/odsb3mkha3.png Скачать фильм Схватка через торрент бесплантно в хорошем качестве Описание: На Аляске потерпел крушение самолет, и оставшиеся в живых пассажиры оказались в плену безлюдной снежной пустыни, где только стая ... 10 10 1
Info! Золотая раздача, скачанное не засчитывается.
Торрент: Зарегистрирован [2012-05-05 18:17] · скачан: 13 раз
Статус: √ проверено
Размер: 32.58 GB
Как cкачать? Как скачать Схватка через торрент | qTorrent

% Раздел Тема Автор DL S | L
Фильмы [HD 720p, 1080p] (Хороший звук DUB, MVO) [ 17.98 GB ] Схватка / The Grey [2011 BDRip DUB + Оригинал| US transfer |] ~Relizer~ Скачать
1 | 0

28-11-2019 20:33  

Отключить всю рекламу на сайте

    Дорогой пользователь! Огромная просьба, поблагодарите релизера, оцените раздачу и оставьте свои комментарий, если Вы скачали Схватка через торрент бесплатно! Внесите свою лепту в развитие PiratBit!
    Комментировать посты могут только пользователи прошедшие не сложную регистрацию
    Показать сообщения:    

    Схватка через торрент
    Скачать бесплатно Схватка
    Схватка скачать торрент
    Схватка смотреть онлайн
    Cкачать фильм Схватка бесплатно
    Схватка скачать торрент в хорошем качестве
    Схватка смотреть онлайн бесплатно в хорошем качестве


    Вы не можете начинать темы
    Вы не можете отвечать на сообщения
    Вы не можете редактировать свои сообщения
    Вы не можете удалять свои сообщения
    Вы не можете голосовать в опросах
    Вы не можете прикреплять файлы к сообщениям
    Вы можете скачивать файлы