Достать ножи: Стеклянная луковица

MVO

Добыча

Дубляж

Уэнсдэй

1 сезон

Тор

Дубляж

13 клиническая

1 сезон

Жестокая ночь

MVO

Одни из нас

1 сезон

Deluxe

pack

Рекомендуем

30

Пиратка

ВАЖНО

ВАЖНО

Ghostwire

Пиратка

jed

RePack

nioh2

RePack

RDR2

RePack

NEED FOR SPEED™ PAYBACK

RePack

скачать торрент

Кинопоиск HD

Острые козырьки 6 сезон

6 сезон

FAR CRY 6

RePack

скачать торрент

Лицензия

скачать торрент

MVO

1

1 сезон

скачать торрент

1 сезон

скачать торрент

Лицензия

  

Скала / The Rock (Майкл Бэй) [1996 г., боевик, триллер, приключения, Blu-Ray (CUSTOM), Дубляж (лицензия)]

Скала через торрент piratbit.org

Размер: 40.03 GB | Добавлен: 10 лет назад | Торрент скачан:42 раза
Смотреть онлайн | Скачать | Поддержите нас   

06-05-2012 20:22 Скала Скачать торрент  

Скала / The Rock

Год выпуска: 1996
Страна: США
Жанр: боевик, триллер, приключения
Продолжительность: 02:16:29
Перевод: Дубляж (Лицензия)
  • Режиссер: Майкл Бэй
  • Продюссер: Кенни Бейтс, Джерри Брукхаймер, Шон Коннери
  • Сценарий: Дэвид Уайсберг, Дуглас Кук, Марк Роснер

  • Бюджет: $75 000 000

  • Лицам до 17 лет обязательно присутствие взрослого

В ролях: Шон Коннери, Николас Кейдж, Эд Харрис, Джон Спенсер, Дэвид Морс, Уильям Форсайт, Майкл Бьен, Ванесса Марсил, Джон К. МакГинли, Грегори Спорледер, Валерий Кравченко, Станислав Концевич, Владимир Летенков, Вадим Яковлев, Валерий Кухарешин

Описание: Генерал элитных диверсионных спецсил США, за плечами которого опыт чуть ли не всех войн планеты, похищает со своими лучшими подчиненными ракеты со смертоносным газом и захватывает в заложники туристов в бывшей тюрьме «Алькатрас», находящейся на острове в бухте Сан-Франциско.
  • Качество: Blu-Ray
  • Формат: BDAV
  • Видео кодек: AVC
  • Аудио кодек: DTS
  • Видео: AVC, 1920x1080 (16:9), 23.976 fps, 26.6 Mbps (0.535 bit/pixel)
  • Аудио #1: DTS MA / Core, 48.0 KHz, 6 ch, 2 059 Kbps / 1 510 Kbps, VBR (Английский)
  • Аудио #2: DTS MA / Core, 48.0 KHz, 6 ch, 2 059 Kbps / 1 510 Kbps, VBR (MVO Карусель)
  • Аудио #3: DTS, 48.0 KHz, 6 ch, 755 Kbps, CBR (Дубляж)
  • Аудио #4: DTS MA / Core, 48.0 KHz, 6 ch, 2 221 Kbps / 1 510 Kbps, VBR (Гаврилов)
  • Аудио #5: DTS, 48.0 KHz, 6 ch, 1 510 Kbps, CBR (Живов)
  • Аудио #6: DTS, 48.0 KHz, 6 ch, 755 Kbps, CBR (Гаврилов)
  • Аудио #7: AC-3, 48.0 KHz, 2 ch, 320 Kbps, CBR (Дубляж CEE)
  • Аудио #8: AC-3, 48.0 KHz, 2 ch, 320 Kbps, CBR (Комментарии)
  • Субтитры: Английский, Арабский, Болгарский, Хорватский, Чешский, Греческий, Иврит,Венгерский, Польский, Португальский, Румынский, Русский, Сербский, Словацкий, Словенский, Турецкий, Украинский
[sup]* Дорожки 2, 4, 5 получены наложением "чистых голосов" на центр оригинального LPCM[/sup]
--> Перейти к Blu-Ray CEE <--

скриншот   скриншот   скриншот   скриншот  

Код:

Общее
Идентификатор                            : 0 (0x0)
Полное имя                               : F:THE_ROCK_BD_BLUEBIRDBDMVSTREAM\00268.m2ts
Формат                                   : BDAV
Формат/Информация                        : Blu-ray Video
Размер файла                             : 36,4 Гбайт
Продолжительность                        : 2 ч. 16 м.
Режим общего битрейта                    : Переменный
Общий поток                              : 38,1 Мбит/сек
Максимальный общий битрейт               : 48,0 Мбит/сек

Видео
Идентификатор                            : 4113 (0x1011)
Идентификатор меню                       : 1 (0x1)
Формат                                   : AVC
Формат/Информация                        : Advanced Video Codec
Профиль формата                          : High@L4.1
Параметр CABAC формата                   : Да
Параметр ReFrames формата                : 2 кадра
Идентификатор кодека                     : 27
Продолжительность                        : 2 ч. 16 м.
Вид битрейта                             : Переменный
Битрейт                                  : 26,6 Мбит/сек
Ширина                                   : 1920 пикселей
Высота                                   : 1080 пикселей
Соотношение сторон                       : 16:9
Частота кадров                           : 23,976 кадра/сек
Цветовое пространство                    : YUV
Субдискретизация насыщенности            : 4:2:0
Битовая глубина                          : 8 бит
Тип развёртки                            : Прогрессивная
Бит/(Пиксели*Кадры)                      : 0.534
Размер потока                            : 25,3 Гбайт (70%)

Аудио #1
Идентификатор                            : 4352 (0x1100)
Идентификатор меню                       : 1 (0x1)
Формат                                   : DTS
Формат/Информация                        : Digital Theater Systems
Профиль формата                          : MA / Core
Режим смешивания                         : Stream extension
Идентификатор кодека                     : 134
Продолжительность                        : 2 ч. 16 м.
Вид битрейта                             : Переменный
Битрейт                                  : 2059 Кбит/сек / 1510 Кбит/сек
Каналы                                   : 6 каналов
Расположение каналов                     : Front: L C R, Side: L R, LFE
Частота                                  : 48,0 КГц
Битовая глубина                          : 16 бит
Метод сжатия                             : Без потерь / Lossy

Аудио #2
Идентификатор                            : 4353 (0x1101)
Идентификатор меню                       : 1 (0x1)
Формат                                   : DTS
Формат/Информация                        : Digital Theater Systems
Профиль формата                          : MA / Core
Режим смешивания                         : Stream extension
Идентификатор кодека                     : 134
Продолжительность                        : 2 ч. 16 м.
Вид битрейта                             : Переменный
Битрейт                                  : 2059 Кбит/сек / 1510 Кбит/сек
Каналы                                   : 6 каналов
Расположение каналов                     : Front: L C R, Side: L R, LFE
Частота                                  : 48,0 КГц
Битовая глубина                          : 16 бит
Метод сжатия                             : Без потерь / Lossy

Аудио #3
Идентификатор                            : 4354 (0x1102)
Идентификатор меню                       : 1 (0x1)
Формат                                   : DTS
Формат/Информация                        : Digital Theater Systems
Идентификатор кодека                     : 130
Продолжительность                        : 2 ч. 16 м.
Вид битрейта                             : Постоянный
Битрейт                                  : 755 Кбит/сек
Каналы                                   : 6 каналов
Расположение каналов                     : Front: L C R, Side: L R, LFE
Частота                                  : 48,0 КГц
Битовая глубина                          : 24 бит
Метод сжатия                             : С потерями
Размер потока                            : 737 Мбайт (2%)

Аудио #4
Идентификатор                            : 4355 (0x1103)
Идентификатор меню                       : 1 (0x1)
Формат                                   : DTS
Формат/Информация                        : Digital Theater Systems
Профиль формата                          : MA / Core
Режим смешивания                         : Stream extension
Идентификатор кодека                     : 134
Продолжительность                        : 2 ч. 16 м.
Вид битрейта                             : Переменный
Битрейт                                  : 2221 Кбит/сек / 1510 Кбит/сек
Каналы                                   : 6 каналов
Расположение каналов                     : Front: L C R, Side: L R, LFE
Частота                                  : 48,0 КГц
Битовая глубина                          : 16 бит
Метод сжатия                             : Без потерь / Lossy

Аудио #5
Идентификатор                            : 4356 (0x1104)
Идентификатор меню                       : 1 (0x1)
Формат                                   : DTS
Формат/Информация                        : Digital Theater Systems
Идентификатор кодека                     : 130
Продолжительность                        : 2 ч. 16 м.
Вид битрейта                             : Постоянный
Битрейт                                  : 1510 Кбит/сек
Каналы                                   : 6 каналов
Расположение каналов                     : Front: L C R, Side: L R, LFE
Частота                                  : 48,0 КГц
Битовая глубина                          : 16 бит
Метод сжатия                             : С потерями
Размер потока                            : 1,44 Гбайт (4%)

Аудио #6
Идентификатор                            : 4357 (0x1105)
Идентификатор меню                       : 1 (0x1)
Формат                                   : DTS
Формат/Информация                        : Digital Theater Systems
Идентификатор кодека                     : 130
Продолжительность                        : 2 ч. 16 м.
Вид битрейта                             : Постоянный
Битрейт                                  : 755 Кбит/сек
Каналы                                   : 6 каналов
Расположение каналов                     : Front: L C R, Side: L R, LFE
Частота                                  : 48,0 КГц
Битовая глубина                          : 24 бит
Метод сжатия                             : С потерями
Размер потока                            : 737 Мбайт (2%)

Аудио #7
Идентификатор                            : 4358 (0x1106)
Идентификатор меню                       : 1 (0x1)
Формат                                   : AC-3
Формат/Информация                        : Audio Coding 3
Расширение режима                        : CM (complete main)
Параметр Endianness формата              : Big
Идентификатор кодека                     : 129
Продолжительность                        : 2 ч. 16 м.
Вид битрейта                             : Постоянный
Битрейт                                  : 320 Кбит/сек
Каналы                                   : 2 канала
Расположение каналов                     : Front: L R
Частота                                  : 48,0 КГц
Битовая глубина                          : 16 бит
Метод сжатия                             : С потерями
Размер потока                            : 313 Мбайт (1%)

Аудио #8
Идентификатор                            : 4359 (0x1107)
Идентификатор меню                       : 1 (0x1)
Формат                                   : AC-3
Формат/Информация                        : Audio Coding 3
Расширение режима                        : CM (complete main)
Параметр Endianness формата              : Big
Идентификатор кодека                     : 129
Продолжительность                        : 2 ч. 16 м.
Вид битрейта                             : Постоянный
Битрейт                                  : 320 Кбит/сек
Каналы                                   : 2 канала
Расположение каналов                     : Front: L R
Частота                                  : 48,0 КГц
Битовая глубина                          : 16 бит
Метод сжатия                             : С потерями
Размер потока                            : 313 Мбайт (1%)

Текст #1
Идентификатор                            : 4608 (0x1200)
Идентификатор меню                       : 1 (0x1)
Формат                                   : PGS
Идентификатор кодека                     : 144

Текст #2
Идентификатор                            : 4609 (0x1201)
Идентификатор меню                       : 1 (0x1)
Формат                                   : PGS
Идентификатор кодека                     : 144

Текст #3
Идентификатор                            : 4610 (0x1202)
Идентификатор меню                       : 1 (0x1)
Формат                                   : PGS
Идентификатор кодека                     : 144

Текст #4
Идентификатор                            : 4611 (0x1203)
Идентификатор меню                       : 1 (0x1)
Формат                                   : PGS
Идентификатор кодека                     : 144

Текст #5
Идентификатор                            : 4612 (0x1204)
Идентификатор меню                       : 1 (0x1)
Формат                                   : PGS
Идентификатор кодека                     : 144

Текст #6
Идентификатор                            : 4613 (0x1205)
Идентификатор меню                       : 1 (0x1)
Формат                                   : PGS
Идентификатор кодека                     : 144

Текст #7
Идентификатор                            : 4614 (0x1206)
Идентификатор меню                       : 1 (0x1)
Формат                                   : PGS
Идентификатор кодека                     : 144

Текст #8
Идентификатор                            : 4615 (0x1207)
Идентификатор меню                       : 1 (0x1)
Формат                                   : PGS
Идентификатор кодека                     : 144

Текст #9
Идентификатор                            : 4616 (0x1208)
Идентификатор меню                       : 1 (0x1)
Формат                                   : PGS
Идентификатор кодека                     : 144

Текст #10
Идентификатор                            : 4617 (0x1209)
Идентификатор меню                       : 1 (0x1)
Формат                                   : PGS
Идентификатор кодека                     : 144

Текст #11
Идентификатор                            : 4618 (0x120A)
Идентификатор меню                       : 1 (0x1)
Формат                                   : PGS
Идентификатор кодека                     : 144

Текст #12
Идентификатор                            : 4619 (0x120B)
Идентификатор меню                       : 1 (0x1)
Формат                                   : PGS
Идентификатор кодека                     : 144

Текст #13
Идентификатор                            : 4620 (0x120C)
Идентификатор меню                       : 1 (0x1)
Формат                                   : PGS
Идентификатор кодека                     : 144

Текст #14
Идентификатор                            : 4621 (0x120D)
Идентификатор меню                       : 1 (0x1)
Формат                                   : PGS
Идентификатор кодека                     : 144

Текст #15
Идентификатор                            : 4622 (0x120E)
Идентификатор меню                       : 1 (0x1)
Формат                                   : PGS
Идентификатор кодека                     : 144

Текст #16
Идентификатор                            : 4623 (0x120F)
Идентификатор меню                       : 1 (0x1)
Формат                                   : PGS
Идентификатор кодека                     : 144

Текст #17
Идентификатор                            : 4624 (0x1210)
Идентификатор меню                       : 1 (0x1)
Формат                                   : PGS
Идентификатор кодека                     : 144

Текст #18
Идентификатор                            : 4625 (0x1211)
Идентификатор меню                       : 1 (0x1)
Формат                                   : PGS
Идентификатор кодека                     : 144

Текст #19
Идентификатор                            : 4626 (0x1212)
Идентификатор меню                       : 1 (0x1)
Формат                                   : PGS
Идентификатор кодека                     : 144
Задержка видео                           : 2 с. 252 мс.




Скачать Скала через торрент https://pic1.kartinco.top/images/2000/zwh5l6i5fc.png Скачать, смотреть онлайн Скала бесплантно в хорошем качестве Описание: Генерал элитных диверсионных спецсил США, за плечами которого опыт чуть ли не всех войн планеты, похищает со своими лучшими ... 5 10 1
Info! Золотая раздача, скачанное не засчитывается.
Торрент: Зарегистрирован [2012-05-06 20:22] · скачан: 42 раз
Статус: √ проверено
Размер: 40.03 GB
Как cкачать? Как скачать Скала через торрент | UTorrent

% Раздел Тема Автор DL S | L
Фильмы [HD 720p, 1080p] (Хороший звук DUB, MVO) [ 23.51 GB ] Скала / The Rock | MVO | 1080p killermax2013 Скачать
1 | 0
Фильмы (Blu-ray, BD-Remux, HDDVD) [ 21.72 GB ] Скала / The Rock | AVO | Скала / The Rock (Майкл Бэй / Michael Bay Ворон Скачать
1 | 0
Фильмы [HD 720p, 1080p] (Хороший звук DUB, MVO) [ 10.34 GB ] Скала / The Rock | DUB | 720p от _denis_100 / NNNB _denis_100 Скачать
1 | 0
Видео для КПК и Смартфонов [ 1.08 GB ] Скала / The Rock | | HDRip mrDruid Скачать
1 | 0
Фильмы (Blu-ray, BD-Remux, HDDVD) [ 14.58 GB ] Скала / The Rock | Дубляж | Скала / The Rock (Майкл Бэй Бумер Скачать
1 | 0
Фильмы до 2000 г. [ 1.45 GB ] Скала / The Rock | MVO | HDRip -=Cherry=- Скачать
1 | 0
Фильмы [HD 720p, 1080p] (Хороший звук DUB, MVO) [ 15.5 GB ] Скала / The Rock | MVO + AVO + Original + Sub | 1080p Ворон Скачать
3 | 0

28-11-2019 20:33  


Отключить вcю реклaмy на сайте, в т.ч. и в плеере онлайн просмотра!

06-05-2012 21:08 Скала Скачать торрент  

enter90 писал(а):

Хороший фильм.

я бы сказал лучший из боевиков), а саундтрек офигенный просто!



07-05-2012 03:37 Скала Скачать торрент  

огромное спасибо !!!!!!!



    Дорогой пользователь! Огромная просьба, поблагодарите релизера, оцените раздачу и оставьте свои комментарий, если Вы скачали Скала через торрент бесплатно!!
    Комментировать посты могут только пользователи прошедшие не сложную регистрацию
    Показать сообщения:    


    Скала через торрент
    Скачать бесплатно Скала
    Скала скачать торрент
    Скала смотреть онлайн
    Cкачать фильм Скала бесплатно
    Скала скачать торрент в хорошем качестве
    Скала смотреть онлайн бесплатно в хорошем качестве
    Вы не можете начинать темы
    Вы не можете отвечать на сообщения
    Вы не можете редактировать свои сообщения
    Вы не можете удалять свои сообщения
    Вы не можете голосовать в опросах
    Вы не можете прикреплять файлы к сообщениям
    Вы можете скачивать файлы
    Скала / The Rock [1996 г., боевик, триллер, приключения, Blu-Ray , Дубляж ] смотреть онлайн, скачать торрент picoco.icu