2 сезон

iTunes

MVO

1

2 сезон

iTunes

iTunes

1 сезон

RePack

30

Новинка

ВАЖНО

ИГРА 18+

pack

RePack

MK11
pack

Легкие деньги

RePack

jed

RePack

fifa19

RePack

RDR2

RePack

NEED FOR SPEED™ PAYBACK

4 сезон

9 сезон

Бесстыжие 9 сезон

Все сериалы

все сериалы на PB.wtf

RePack

FAR CRY 5

Anonymous, добрый день, мы не успеваем собрать деньги на оплату серверов за декабрь и январь, помогите нам пожалуйста в это трудное время. В качестве благодарности мы отключим Вам всю рекламу на сайте (укажите свой ник в строку Ваше имя)!

×
  
Magnet ссылка

Ибо Питер (Альберт Хайруллин.) [2012 г., комедия, DVDRip, Оригинал] piratbit.org

Ибо Питер через торрент piratbit.org

Размер: 1.42 GB | Добавлен: 8 лет 8 мес. назад | Торрент скачан:805 раз
Скачать  

08-05-2012 07:42 Ибо Питер Скачать торрент  

Ибо Питер

Год выпуска: 2012
Страна: Россия
Жанр: комедия
Продолжительность: 01:14:04
Перевод: Оригинал
Субтитры: Нет

Режиссер: Альберт Хайруллин.

В ролях: Александр Долганов, Евгений Иржанский, Ирина Когут, Ксения Солдатова.

Описание: Фильм основан на историях из реальной жизни, под которые и была придумана сюжетная линия.
Главный герой фильма - Дэн не привык жить в рамках жизненных штампов и живет так, как ему хочется. Поссорившись в очередной раз со своей подругой Мирой, он прибывает в состоянии неопределенности, - стоит ли им окончательно разойтись или пытаться вновь наладить отношения. Друг Дэна - Рэнсон предлагает ему поехать на выходные в Питер, где он мог бы встретиться со своими старыми друзьями, развеяться и принять верное решение. В тоже время Мира получает приглашение от своей подруги поехать на weekend в Питер, чтобы собраться с мыслями и адекватно посмотреть на всю ситуацию. В городе на Неве, герои фильма попадают в запутанный круговорот событий, который и расставит все точки над i в их отношениях.

Качество: DVDRip
Формат: AVI
Видео кодек: XviD
Аудио кодек: MP3
Видео: XviD, 720x480 (1.500), 29.970 fps, 4 063 Kbps
Аудио#1: MP3 , 44.1 KHz, 2 ch, 128 Kbps, CBR

General
Complete name : D:\Мои фильмы и мульты\Ibo_Piter.avi
Format : AVI
Format/Info : Audio Video Interleave
Format profile : OpenDML
File size : 1.42 GiB
Duration : 1h 14mn
Overall bit rate : 2 754 Kbps
Writing application : MEncoder SVN-r30881(20100311-gcc4.3.3)
Writing library : MPlayer

Video
ID : 0
Format : MPEG-4 Visual
Format profile : Advanced Simple@L5
Format settings, BVOP : 2
Format settings, QPel : No
Format settings, GMC : No warppoints
Format settings, Matrix : Default (H.263)
Codec ID : XVID
Codec ID/Hint : XviD
Duration : 1h 14mn
Bit rate : 2 612 Kbps
Width : 720 pixels
Height : 480 pixels
Display aspect ratio : 3:2
Frame rate : 29.970 fps
Standard : NTSC
Color space : YUV
Chroma subsampling : 4:2:0
Bit depth : 8 bits
Scan type : Progressive
Compression mode : Lossy
Bits/(Pixel*Frame) : 0.252
Stream size : 1.35 GiB (95%)
Writing library : XviD 1.2.1 (UTC 2008-12-04)

Audio
ID : 1
Format : MPEG Audio
Format version : Version 1
Format profile : Layer 3
Mode : Joint stereo
Mode extension : MS Stereo
Codec ID : 55
Codec ID/Hint : MP3
Duration : 1h 14mn
Bit rate mode : Constant
Bit rate : 128 Kbps
Channel(s) : 2 channels
Sampling rate : 44.1 KHz
Compression mode : Lossy
Delay relative to video : 33ms
Stream size : 67.8 MiB (5%)
Alignment : Aligned on interleaves
Interleave, duration : 26 ms (0.78 video frame)
Interleave, preload duration : 522 ms
[img]https://pic.kartinco.top/images/2000/tynl9ixvx1.bmp[/img]
[img]https://pic.kartinco.top/images/2000/eaae8rg1k3.bmp[/img]
[img]https://pic.kartinco.top/images/2000/4154es4h8m.bmp[/img]


piratbit.org



Скачать Ибо Питер через торрент https://pic.kartinco.top/images/2000/s5no8zr9xu.jpg Скачать фильм Ибо Питер через торрент бесплантно в хорошем качестве Описание: Фильм основан на историях из реальной жизни, под которые и была придумана сюжетная линия. Главный герой фильма - Дэн не привык ... 10 10 1
Info! Золотая раздача, скачанное не засчитывается.
Торрент: Зарегистрирован [2012-05-08 07:42] · скачан: 805 раз
Статус: √ проверено
Размер: 1.42 GB
Как cкачать? Как скачать Ибо Питер через торрент | UTorrent

% Раздел Тема Автор DL S | L
Фантастика, фентези, мистика, ужасы [ 19 MB ] Питер Гамильтон - Сборник произведений [2002-2014 FB2 OCR без ошибок] sahambar Скачать
1 | 0


Последний раз редактировалось: Daminant (2012-05-08 08:42), всего редактировалось 3 раз(а)

28-11-2019 20:33  

Отключить всю рекламу на сайте


08-05-2012 08:31 Ибо Питер Скачать торрент  

кто смотрел кино??? стоит качать???piratbit.org



10-05-2012 15:43 Ибо Питер Скачать торрент  

фильм очень сильно любительский...

ИМХО, со звуком все плоха: слишком студийный (всегдща ровный), и не всегда соответсвует тому, что происходит в реальности. Лучше бы рядом поставил микрофон и по старинке сразу писали бы... "левые" шумы и "нечистый" намного лучше корявой студийной аудиодорожки.
Сюжет - сюжет избитый и далеко не новый: друг переспал с подругой друга. Их интересностей - "случайно" друзья "объменялись" подругами...
Из минусов: слишком много бухла как в кадре, так и на фоне. Может браться Хайруллины и пытались сделать свой фильм более реалистичным... но смысл то какой они несут свое картиной?
Так что кратко фильм можно охарактеризовать цитатой из самого фильма: "кроговорот гАвна".piratbit.org



07-06-2012 17:07 Ибо Питер Скачать торрент  

Ибо Питерpiratbit.org



    Дорогой пользователь! Огромная просьба, поблагодарите релизера, оцените раздачу и оставьте свои комментарий, если Вы скачали Ибо Питер через торрент бесплатно! Внесите свою лепту в развитие PiratBit!
    Комментировать посты могут только пользователи прошедшие не сложную регистрацию
    Показать сообщения:    

    Ибо Питер через торрент
    Скачать бесплатно Ибо Питер
    Ибо Питер скачать торрент
    Ибо Питер смотреть онлайн
    Cкачать фильм Ибо Питер бесплатно
    Ибо Питер скачать торрент в хорошем качестве
    Ибо Питер смотреть онлайн бесплатно в хорошем качестве


    Вы не можете начинать темы
    Вы не можете отвечать на сообщения
    Вы не можете редактировать свои сообщения
    Вы не можете удалять свои сообщения
    Вы не можете голосовать в опросах
    Вы не можете прикреплять файлы к сообщениям
    Вы можете скачивать файлы