1 сезон

1 сезон

iTunes

1

КиноПоиск HD

Кинопоиск HD

iTunes

13

1 сезон

RePack

30

Deluxe

ВАЖНО

ИГРА 18+

pack

RePack

MK11
pack

Легкие деньги

RePack

jed

RePack

fifa19

RePack

RDR2

RePack

NEED FOR SPEED™ PAYBACK

4 сезон

9 сезон

Бесстыжие 9 сезон

Все сериалы

все сериалы на PB.wtf

RePack

FAR CRY 5
  
Magnet ссылка

Академия смерти / NaPolA (Деннис Ганзель) [2004 г., драма, военный, HDRip, Профессиональный (многоголосый, закадровый + Оригинал] piratbit.org

Академия смерти через торрент piratbit.org

Размер: 2.15 GB | Добавлен: 8 лет 11 мес. назад | Торрент скачан:158 раз
Скачать  

09-05-2012 05:08 Академия смерти Скачать торрент  

Академия смерти / NaPolA

Год выпуска: 2004
Страна: Германия
Жанр: драма, военный
Продолжительность: 01:54:34
Перевод: Профессиональный (многоголосый, закадровый) + Оригинал

Режиссер: Деннис Ганзель
Продюссер: Виола Джагер, Харольд Кёглер, Молли Фон Ферстенберг
Сценарий: Деннис Ганзель, Мэгги Перен

Мировой рейтинг IMDB 7.40 (6 102)


В ролях: Макс Римельт, Том Шиллинг, Йонас Егермайр, Леон А. Керстен, Томас Дрехзель, Мартин Горес, Флориан Штеттер, Девид Штрисов, Йоахим Биссмайер, Михаэль Шенк

Описание: В моих бастионах мы вырастим молодежь, которая заставит весь мир содрогаться от ужаса. Мне нужны жестокие, требующие беспрекословного подчинения, бесстрашные и безжалостные юноши... Мне нужна сильная и красивая молодежь... Так я положу начало новому миру! — Адольф Гитлер.Для осуществления навязчивой идеи Гитлера были созданы Национально-политические академии — система элитных школ под сокращенным названием «НАПОЛА». Там готовили расу новых господ, будущих гауляйтеров Минска или Лондона. До последнего времени о существовании этих школ в Германии не принято было вспоминать, потому что бывшие выпускники НАПОЛЫ до сих пор занимают высокие посты в политике и бизнесе.Берлин, 1942 год. Шестнадцатилетний Фридрих получает лестное предложение стать учеником НАПОЛЫ, где элита завтрашнего дня штудирует «Нибелунгов», бегает кроссы, охотится с боевым оружием на русских пленных... Но вскоре первоначальные восторги уступают место сомнениям...

Качество: HDRip
Формат: AVI
Видео кодек: XviD
Аудио кодек: AC3
Видео: 720x304 (2.37:1), 24.000 fps, XviD build 50 ~1853 kbps avg, 0.35 bit/pixel
Аудио#1: 48 kHz, AC3 Dolby Digital, 3/2 (L,C,R,l,r) + LFE ch, ~384.00 kbps avg - многоголосый, закадровый
Аудио#2: 48 kHz, AC3 Dolby Digital, 3/2 (L,C,R,l,r) + LFE ch, ~448.00 kbps avg - оригинальная дорожка
Субтитры: русские (внешние)

Общее
Полное имя : D:\Раздачи\Академия смерти\Akademiya_smerti.avi
Формат : AVI
Формат/Информация : Audio Video Interleave
Профиль формата : OpenDML
Размер файла : 2,15 Гбайт
Продолжительность : 1 ч. 54 м.
Общий поток : 2692 Кбит/сек
Программа кодирования : VirtualDubModRus 1.5.10.2 (build 2542/release)
Библиотека кодирования : VirtualDubMod build 2542/release

Видео
Идентификатор : 0
Формат : MPEG-4 Visual
Профиль формата : Advanced Simple@L5
Параметр BVOP формата : 2
Параметр QPel формата : Нет
Параметр GMC формата : Без точки перехода
Параметр матрицы формата : Выборочная
Идентификатор кодека : XVID
Идентификатор кодека/Подсказка : XviD
Продолжительность : 1 ч. 54 м.
Битрейт : 1842 Кбит/сек
Ширина : 720 пикселей
Высота : 304 пикселя
Соотношение сторон : 2,35:1
Частота кадров : 24,000 кадра/сек
Цветовое пространство : YUV
Субдискретизация насыщенности : 4:2:0
Битовая глубина : 8 бит
Тип развёртки : Прогрессивная
Метод сжатия : С потерями
Бит/(Пиксели*Кадры) : 0.351
Размер потока : 1,47 Гбайт (68%)
Библиотека кодирования : XviD 1.2.1 (UTC 2008-12-04)

Аудио #1
Идентификатор : 1
Формат : AC-3
Формат/Информация : Audio Coding 3
Расширение режима : CM (complete main)
Параметр Endianness формата : Big
Идентификатор кодека : 2000
Продолжительность : 1 ч. 54 м.
Вид битрейта : Постоянный
Битрейт : 384 Кбит/сек
Каналы : 6 каналов
Расположение каналов : Front: L C R, Side: L R, LFE
Частота : 48,0 КГц
Битовая глубина : 16 бит
Метод сжатия : С потерями
Размер потока : 314 Мбайт (14%)
Выравнивание : Разделение по промежуткам
Продолжительность промежутка : 42 мс. (1,00 видеокадр)
Время предзагрузки промежутка : 500 мс.

Аудио #2
Идентификатор : 2
Формат : AC-3
Формат/Информация : Audio Coding 3
Расширение режима : CM (complete main)
Параметр Endianness формата : Big
Идентификатор кодека : 2000
Продолжительность : 1 ч. 54 м.
Вид битрейта : Постоянный
Битрейт : 448 Кбит/сек
Каналы : 6 каналов
Расположение каналов : Front: L C R, Side: L R, LFE
Частота : 48,0 КГц
Битовая глубина : 16 бит
Метод сжатия : С потерями
Размер потока : 367 Мбайт (17%)
Выравнивание : Разделение по промежуткам
Продолжительность промежутка : 42 мс. (1,00 видеокадр)
Время предзагрузки промежутка : 500 мс.

Общее
Полное имя : D:\Раздачи\Академия смерти\Akademiya_smerti.srt
Размер файла : 84,9 Кбайт

piratbit.org



Скачать Академия смерти через торрент https://pic1.kartinco.top/images/2000/1oe623j2e7.jpg Скачать фильм Академия смерти через торрент бесплантно в хорошем качестве Описание: В моих бастионах мы вырастим молодежь, которая заставит весь мир содрогаться от ужаса. Мне нужны жестокие, требующие ... 10 10 3
Info! Золотая раздача, скачанное не засчитывается.
Торрент: Зарегистрирован [2012-05-09 05:08] · скачан: 158 раз
Статус: √ проверено
Размер: 2.15 GB
Как cкачать? Как скачать Академия смерти через торрент | UTorrent

% Раздел Тема Автор DL S | L
Фильмы [HD 720p, 1080p] (Хороший звук DUB, MVO) [ 7.95 GB ] Академия смерти / NaPolA [2004 военный BDRip 1080p многоголосый] -Lexx- Скачать
1 | 0
Фильмы [HD 720p, 1080p] (Хороший звук DUB, MVO) [ 6.83 GB ] Академия смерти / Before the Fall / NaPolA [2004 военный BDRip ] Flint3 Скачать
1 | 0
Фильмы 2001-2005 [ 2.3 GB ] Академия смерти / Napola [2004 война HDRip-AVC] MVO + Original Kristian Larsson Скачать
1 | 0

28-11-2019 20:33  

Отключить всю рекламу на сайте

17-02-2019 15:25 Академия смерти Скачать торрент  

подкиньте скоростиpiratbit.org



    Дорогой пользователь! Огромная просьба, поблагодарите релизера, оцените раздачу и оставьте свои комментарий, если Вы скачали Академия смерти через торрент бесплатно! Внесите свою лепту в развитие PiratBit!
    Комментировать посты могут только пользователи прошедшие не сложную регистрацию
    Показать сообщения:    

    Академия смерти через торрент
    Скачать бесплатно Академия смерти
    Академия смерти скачать торрент
    Академия смерти смотреть онлайн
    Cкачать фильм Академия смерти бесплатно
    Академия смерти скачать торрент в хорошем качестве
    Академия смерти смотреть онлайн бесплатно в хорошем качестве


    Вы не можете начинать темы
    Вы не можете отвечать на сообщения
    Вы не можете редактировать свои сообщения
    Вы не можете удалять свои сообщения
    Вы не можете голосовать в опросах
    Вы не можете прикреплять файлы к сообщениям
    Вы можете скачивать файлы