Достать ножи: Стеклянная луковица

MVO

Добыча

Дубляж

Уэнсдэй

1 сезон

Тор

Дубляж

13 клиническая

1 сезон

Жестокая ночь

MVO

Одни из нас

1 сезон

Deluxe

pack

Рекомендуем

30

Пиратка

ВАЖНО

ВАЖНО

Ghostwire

Пиратка

jed

RePack

nioh2

RePack

RDR2

RePack

NEED FOR SPEED™ PAYBACK

RePack

скачать торрент

Кинопоиск HD

Острые козырьки 6 сезон

6 сезон

FAR CRY 6

RePack

скачать торрент

Лицензия

скачать торрент

MVO

1

1 сезон

скачать торрент

1 сезон

скачать торрент

Лицензия

  

Первый мститель / Captain America: The First Avenger (Джо Джонстон) [2011 г., фантастика, боевик, приключения, BDRemux]

Первый мститель через торрент piratbit.org

Размер: 29.98 GB | Добавлен: 10 лет назад | Торрент скачан:33 раза
Смотреть онлайн | Скачать | Поддержите нас   

10-05-2012 12:56 Первый мститель Скачать торрент  

Первый мститель / Captain America: The First Avenger
«When patriots become heroes» Год выпуска: 2011

Страна: США
Жанр: фантастика, боевик, приключения
Продолжительность: 124 мин.
Перевод: Дубляж (Лицензия)

Режиссер: Джо Джонстон
Продюссер: Амир Мадани, Кевин Файги, Виктория Алонсо
Сценарий: Кристофер Маркус, Стивен МакФили, Джо Саймон
Бюджет: $140 000 000
детям до 13 лет просмотр не желателен

В ролях: Крис Эванс, Томми Ли Джонс, Хьюго Уивинг, Доминик Купер, Нил МакДонаф, Дерек Люк, Стэнли Туччи, Хейли Этвелл, Себастиан Стэн, Ричард Армитэдж, Даниил Эльдаров, Михаил Георгиу, Александр Груздев, Дмитрий Поляновский, Пётр Иващенко

Описание: Стив Роджерс добровольно соглашается принять участие в эксперименте, который превратит его в суперсолдата, известного как Первый мститель. Роджерс вступает в вооруженные силы США вместе с Баки Барнсом и Пегги Картер, чтобы бороться с враждебной организацией ГИДРА, которой управляет безжалостный Красный Череп.

Качество: BDRemux
Формат: MKV
Видео кодек: H.264
Аудио кодек: AC3/DTS-HD
Видео: H.264, 1920x1080, 23,976 fps, 28788 kbps
Аудио#1: Russian: AC3 5.1, 48 kHz, 640 kbps avg |Дубляж, Blu-ray CEE|
Аудио#2: English: DTS-HD MA 7.1, 48 kHz, 5097 kbps avg (DTS Core: 5.1 / 48 kHz / 1509 kbps)
Аудио#3: English: AC3 2.0, 48 kHz, 224 kbps avg |Commentary|
Субтитры: Russian, Ukrainian, English

скриншот   скриншот   скриншот   скриншот  

General
Unique ID : 171004919928301820273310697888611348223 (0x80A6597EE9022629B535D56B0A48AEFF)
Format : Matroska
Format version : Version 2
File size : 30.0 GiB
Duration : 2h 4mn
Overall bit rate mode : Variable
Overall bit rate : 34.6 Mbps
Movie name : Первый мститель
Encoded date : UTC 2011-11-12 17:26:21
Writing application : mkvmerge v2.9.7 ('Tenderness') built on Jul 1 2009 18:43:35
Writing library : libebml v0.7.7 + libmatroska v0.8.1

Video
ID : 1
Format : AVC
Format/Info : Advanced Video Codec
Format profile : High@L4.1
Format settings, CABAC : Yes
Format settings, ReFrames : 4 frames
Codec ID : V_MPEG4/ISO/AVC
Duration : 2h 4mn
Bit rate mode : Variable
Bit rate : 31.4 Mbps
Maximum bit rate : 32.0 Mbps
Width : 1 920 pixels
Height : 1 080 pixels
Display aspect ratio : 16:9
Frame rate : 23.976 fps
Color space : YUV
Chroma subsampling : 4:2:0
Bit depth : 8 bits
Scan type : Progressive
Bits/(Pixel*Frame) : 0.632
Stream size : 27.2 GiB (91%)
Title : Первый мститель
Language : English
Default : Yes
Forced : No

Audio #1
ID : 2
Format : AC-3
Format/Info : Audio Coding 3
Mode extension : CM (complete main)
Format settings, Endianness : Big
Codec ID : A_AC3
Duration : 2h 4mn
Bit rate mode : Constant
Bit rate : 640 Kbps
Channel(s) : 6 channels
Channel positions : Front: L C R, Side: L R, LFE
Sampling rate : 48.0 KHz
Bit depth : 16 bits
Compression mode : Lossy
Stream size : 569 MiB (2%)
Title : AC3 - Дубляж (Blu-ray CEE)
Language : Russian
Default : Yes
Forced : No

Audio #2
ID : 3
Format : DTS
Format/Info : Digital Theater Systems
Format profile : MA / Core
Codec ID : A_DTS
Duration : 2h 4mn
Bit rate mode : Variable
Bit rate : 1 606 Kbps / 1 510 Kbps
Channel(s) : 8 channels / 6 channels
Channel positions : Front: L C R, Side: L R, Back: L R, LFE / Front: L C R, Side: L R, LFE
Sampling rate : 48.0 KHz
Bit depth : 24 bits
Compression mode : Lossless / Lossy
Title : DTS-HD
Language : English
Default : No
Forced : No

Audio #3
ID : 4
Format : AC-3
Format/Info : Audio Coding 3
Mode extension : CM (complete main)
Format settings, Endianness : Big
Codec ID : A_AC3
Duration : 2h 4mn
Bit rate mode : Constant
Bit rate : 224 Kbps
Channel(s) : 2 channels
Channel positions : Front: L R
Sampling rate : 48.0 KHz
Bit depth : 16 bits
Compression mode : Lossy
Stream size : 199 MiB (1%)
Title : AC3 - Commentary
Language : English
Default : No
Forced : No

Text #1
ID : 5
Format : UTF-8
Codec ID : S_TEXT/UTF8
Codec ID/Info : UTF-8 Plain Text
Title : Forced
Language : Russian
Default : Yes
Forced : No

Text #2
ID : 6
Format : UTF-8
Codec ID : S_TEXT/UTF8
Codec ID/Info : UTF-8 Plain Text
Language : Russian
Default : No
Forced : No

Text #3
ID : 7
Format : UTF-8
Codec ID : S_TEXT/UTF8
Codec ID/Info : UTF-8 Plain Text
Language : Ukrainian
Default : No
Forced : No

Text #4
ID : 8
Format : UTF-8
Codec ID : S_TEXT/UTF8
Codec ID/Info : UTF-8 Plain Text
Language : English
Default : No
Forced : No

Menu
00:00:00.000 : en:Chapter 01
00:08:12.158 : en:Chapter 02
00:14:56.813 : en:Chapter 03
00:24:21.543 : en:Chapter 04
00:30:39.129 : en:Chapter 05
00:38:39.859 : en:Chapter 06
00:45:52.166 : en:Chapter 07
00:51:58.157 : en:Chapter 08
00:57:55.639 : en:Chapter 09
01:03:59.294 : en:Chapter 10
01:12:22.588 : en:Chapter 11
01:19:10.663 : en:Chapter 12
01:28:27.052 : en:Chapter 13
01:33:53.002 : en:Chapter 14
01:42:20.343 : en:Chapter 15
01:50:45.055 : en:Chapter 16
01:53:46.319 : en:Chapter 17



Скачать Первый мститель через торрент http://mypix.me/images/fbr4qd5oer8c0ks1fvcz.png Скачать, смотреть онлайн Первый мститель бесплантно в хорошем качестве Описание: Стив Роджерс добровольно соглашается принять участие в эксперименте, который превратит его в суперсолдата, известного как Первый ... 10 10 1
Info! Золотая раздача, скачанное не засчитывается.
Торрент: Зарегистрирован [2012-05-10 12:56] · скачан: 33 раз
Статус: √ проверено
Размер: 29.98 GB
Как cкачать? Как скачать Первый мститель через торрент | UTorrent

% Раздел Тема Автор DL S | L
Релизы по Парсеру [Игры, Сериалы и Фильмы и другое...] [ 1.12 GB ] Первый мститель / Агитатор / Captain America: The First Avenger | MVO | WEBRip killermax2013 Скачать
1 | 0
Ultra HD (UHD: 2K, 4K, 8K) [ 16.6 GB ] Первый мститель / Captain America: The First Avenger | DUB | 2160p sheker187 Скачать
1 | 0
Ultra HD (UHD: 2K, 4K, 8K) [ 60.67 GB ] Первый мститель / Captain America: The First Avenger | Лицензия | 2160p bober100 Скачать
1 | 0
Ultra HD (UHD: 2K, 4K, 8K) [ 66.03 GB ] Первый мститель / Captain America: The First Avenger | Лицензия | 2160p bober100 Скачать
1 | 0
Сборники и Сиквелы (48-60 fps) [ 9.97 GB ] Первый мститель: Дилогия / Captain America: Dilogy | DUB | 720p,DUB slaventi-69 Скачать
1 | 0
Сборники и Сиквелы (48-60 fps) [ 7.91 GB ] Первый мститель : Дилогия / Captain America: Dilogy | Дубляж | BDRip-AVC 60fps, Дубляж Tiberiumsun69 Скачать
2 | 0
Фильмы с авторской озвучкой [ 1.47 GB ] Первый мститель / Captain America: The First Avenger | | BDRip, Авторский [Гаврилов ASPID100 Скачать
1 | 0



Последний раз редактировалось: F.U. (2012-05-10 13:28), всего редактировалось 1 раз

28-11-2019 20:33  


Отключить вcю реклaмy на сайте, в т.ч. и в плеере онлайн просмотра!

10-05-2012 13:06 Первый мститель Скачать торрент  

Смотрел фильм в 3Д, сюжет с хорошей задумкой, но думал что спецэффектов будет побольше...



10-05-2012 13:10 Первый мститель Скачать торрент  

тож смотрел. задумка хороша, но ожидал чуть большего)))



    Дорогой пользователь! Огромная просьба, поблагодарите релизера, оцените раздачу и оставьте свои комментарий, если Вы скачали Первый мститель через торрент бесплатно!!
    Комментировать посты могут только пользователи прошедшие не сложную регистрацию
    Показать сообщения:    


    Первый мститель через торрент
    Скачать бесплатно Первый мститель
    Первый мститель скачать торрент
    Первый мститель смотреть онлайн
    Cкачать фильм Первый мститель бесплатно
    Первый мститель скачать торрент в хорошем качестве
    Первый мститель смотреть онлайн бесплатно в хорошем качестве
    Вы не можете начинать темы
    Вы не можете отвечать на сообщения
    Вы не можете редактировать свои сообщения
    Вы не можете удалять свои сообщения
    Вы не можете голосовать в опросах
    Вы не можете прикреплять файлы к сообщениям
    Вы можете скачивать файлы
    Первый мститель / Captain America: The First Avenger [2011 г., фантастика, боевик, приключения, BDRemux] смотреть онлайн, скачать торрент picoco.icu