2 сезон

iTunes

MVO

1

2 сезон

iTunes

iTunes

1 сезон

RePack

30

Новинка

ВАЖНО

ИГРА 18+

pack

RePack

MK11
pack

Легкие деньги

RePack

jed

RePack

fifa19

RePack

RDR2

RePack

NEED FOR SPEED™ PAYBACK

4 сезон

9 сезон

Бесстыжие 9 сезон

Все сериалы

все сериалы на PB.wtf

RePack

FAR CRY 5

Anonymous, добрый вечер, мы не успеваем собрать деньги на оплату серверов за декабрь и январь, помогите нам пожалуйста в это трудное время. В качестве благодарности мы отключим Вам всю рекламу на сайте (укажите свой ник в строку Ваше имя)!

×
  
Magnet ссылка

Специалист / Python. Уровень 3. Разработка веб - приложений в Django [2012] PCRec [2012 г., Программирование] piratbit.org

Специалист через торрент piratbit.org

Качают: 1 [ 0 KB/s ]
Размер: 4.85 GB | Добавлен: 8 лет 8 мес. назад | Торрент скачан:401 раз
Скачать  

10-05-2012 16:27 Специалист Скачать торрент  

Python. Уровень 3. Разработка веб - приложений в Django

Автор: Специалист
Год выпуска: 2012
Страна: Россия
Жанр: Программирование
Продолжительность: 27:31:07
Качество видео: PCRec
Формат: WMV
Видео кодек: G2M4
Аудио кодек: Windows Media
Видео: 1280х1024 px, 365 kbps, 29,97 fps
Аудио: 48 kbps, mono, 44100 Hz

Описание: Вы занимаетесь программированием и интересуетесь веб-разработкой? Возможно, имеете определенный практический опыт разработки с использованием РНР и СУБД? Вы - системный администратор или IT-специалист и у Вас возникла необходимость в освоении данного языка программирования?
На данном курсе Вы изучите создание веб-приложений на языке Python с использованием MVC-подхода на примере фреймворка Django.
Курс предназначен для программистов, интересующихся веб-разработкой, возможно, имеющих определенный практический опыт разработки с использованием РНР и СУБД.
Модуль 1. Web-разработка с применением концепции MVC
История и развитие веб-программирования, различные подходы.
Идеи MVC-подхода: разделение логики, интерфейса и данных.
Установка Web-фреймворка Django.
Структура проекта.
Модуль 2. Основы использования шаблонов
Передача данных из приложения в шаблоны.
Использование циклов и выбора в шаблонах.
Модуль 3. Хранение и работа с данными
Способы хранения данных
Создание и администрирование БД.
Схема БД: таблицы, связи между ними, ключи.
Отображение данных в БД на объекты приложения (ORM).
Реализация операций выборки, создания, удаления и изменения объектов.
Модуль 4. Использование форм
Специальные средства создания форм.
Проверка параметров форм.
Модуль 5. Разграничение прав доступа пользователей
Авторизация пользователей и разграничение прав доступа.
Сессии, не требующие регистрации.
Безопасность.
Модуль 6. Сложные запросы к данным
Реализация сложных запросов.
Соединение запросов, подзапросы.
Вызов хранимых процедур.
Модуль 7. Расширенные возможности шаблонного механизма
Встроенные фильтры.
Создание своих фильтров.
Модуль 8. Выдача данных в форматах, отличных от HTML
Отделение статического контента от динамического.
Отправка почтовых уведомлений.
Отдача лент новостей.
Генерация PDF-документов
Модуль 9. Средства отладки и тестирования
Журналирование.
Встроенный интерфейс администрирования.
Модульное тестирование.
Модуль 10. Развертывание веб-приложений
Использование встроенного веб-сервера, CGI, FastCGI и mod_python.
Развертывание и миграция БД.
Общее
Полное имя : D:\Проги\Видеоуроки\Уроки Python\Python. Уровень 3. Разработка веб - приложений в Django\2012-01-15 10.03 PITON3 15.01-12.02 u-d R_Repair.wmv
Формат : Windows Media
Размер файла : 102 Мбайт
Продолжительность : 1 ч. 54 м.
Режим общего битрейта : Переменный
Общий поток : 125 Кбит/сек
Максимальный общий битрейт : 27,9 Мбит/сек
Дата кодирования : UTC 2012-02-14 12:47:00.728

Видео
Идентификатор : 3
Формат : G2M4
Идентификатор кодека : G2M4
Вид битрейта : Переменный
Битрейт : 27,6 Мбит/сек
Ширина : 1280 пикселей
Высота : 1024 пикселя
Соотношение сторон : 5:4
Режим частоты кадров : Переменный
Номинальная частота кадров : 29,970 кадров/сек
Битовая глубина : 8 бит

Аудио
Идентификатор : 1
Формат : WMA
Версия формата : Version 2
Идентификатор кодека : 161
Идентификатор кодека/Информация : Windows Media Audio
Продолжительность : 1 ч. 54 м.
Вид битрейта : Постоянный
Битрейт : 48,0 Кбит/сек
Каналы : 1 канал
Частота : 44,1 КГц
Битовая глубина : 16 бит
Размер потока : 39,5 Мбайт (39%)

Общее
Полное имя : D:\Проги\Видеоуроки\Уроки Python\Python. Уровень 3. Разработка веб - приложений в Django\2012-01-22 09.08 PITON3 15.01-12.02 u-d R.wmv
Формат : Windows Media
Размер файла : 1,23 Гбайт
Продолжительность : 6 ч. 53 м.
Режим общего битрейта : Переменный
Общий поток : 425 Кбит/сек
Максимальный общий битрейт : 557 Кбит/сек
Дата кодирования : UTC 2012-01-22 06:08:50.782
Программа кодирования : 4.8 Build 723 / GoToMeeting
BitRateFrom the writer : 422496
Audio samples : 246327
Video samples : 91573
recording time : Вс, 22 янв 2012 16:17:38 Московское время (зима)

Видео
Идентификатор : 3
Формат : G2M4
Идентификатор кодека : G2M4
Вид битрейта : Переменный
Битрейт : 374 Кбит/сек
Ширина : 1280 пикселей
Высота : 1024 пикселя
Соотношение сторон : 5:4
Режим частоты кадров : Переменный
Номинальная частота кадров : 29,970 кадров/сек
Битовая глубина : 8 бит
Язык : Russian (RU)

Аудио
Идентификатор : 1
Формат : WMA
Версия формата : Version 2
Идентификатор кодека : 161
Идентификатор кодека/Информация : Windows Media Audio
Описание кодека : Windows Media Audio 9.2 - 48 kbps, 44 kHz, mono 1-pass CBR
Продолжительность : 6 ч. 53 м.
Вид битрейта : Постоянный
Битрейт : 48,0 Кбит/сек
Каналы : 1 канал
Частота : 44,1 КГц
Битовая глубина : 16 бит
Размер потока : 142 Мбайт (11%)
Язык : Russian

Общее
Полное имя : D:\Проги\Видеоуроки\Уроки Python\Python. Уровень 3. Разработка веб - приложений в Django\2012-01-29 09.06 PITON3 15.01-12.02 u-d R.wmv
Формат : Windows Media
Размер файла : 1,23 Гбайт
Продолжительность : 7 ч. 6 м.
Режим общего битрейта : Переменный
Общий поток : 413 Кбит/сек
Максимальный общий битрейт : 544 Кбит/сек
Дата кодирования : UTC 2012-01-29 06:06:06.310
Программа кодирования : 4.8 Build 723 / GoToMeeting
BitRateFrom the writer : 409839
Audio samples : 254504
Video samples : 101482
recording time : Вс, 29 янв 2012 16:20:31 Московское время (зима)

Видео
Идентификатор : 3
Формат : G2M4
Идентификатор кодека : G2M4
Вид битрейта : Переменный
Битрейт : 362 Кбит/сек
Ширина : 1280 пикселей
Высота : 1024 пикселя
Соотношение сторон : 5:4
Режим частоты кадров : Переменный
Номинальная частота кадров : 29,970 кадров/сек
Битовая глубина : 8 бит
Язык : Russian (RU)

Аудио
Идентификатор : 1
Формат : WMA
Версия формата : Version 2
Идентификатор кодека : 161
Идентификатор кодека/Информация : Windows Media Audio
Описание кодека : Windows Media Audio 9.2 - 48 kbps, 44 kHz, mono 1-pass CBR
Продолжительность : 7 ч. 6 м.
Вид битрейта : Постоянный
Битрейт : 48,0 Кбит/сек
Каналы : 1 канал
Частота : 44,1 КГц
Битовая глубина : 16 бит
Размер потока : 147 Мбайт (12%)
Язык : Russian

Общее
Полное имя : D:\Проги\Видеоуроки\Уроки Python\Python. Уровень 3. Разработка веб - приложений в Django\2012-02-05 08.41 PITON3 15.01-12.02 u-d R.wmv
Формат : Windows Media
Размер файла : 1,01 Гбайт
Продолжительность : 5 ч. 48 м.
Режим общего битрейта : Переменный
Общий поток : 416 Кбит/сек
Максимальный общий битрейт : 547 Кбит/сек
Дата кодирования : UTC 2012-02-05 05:41:32.484
Программа кодирования : 4.8 Build 723 / GoToMeeting
BitRateFrom the writer : 412713
Audio samples : 195346
Video samples : 87194
recording time : Вс, 05 фев 2012 16:22:16 Московское время (зима)

Видео
Идентификатор : 3
Формат : G2M4
Идентификатор кодека : G2M4
Вид битрейта : Переменный
Битрейт : 365 Кбит/сек
Ширина : 1280 пикселей
Высота : 1024 пикселя
Соотношение сторон : 5:4
Режим частоты кадров : Переменный
Номинальная частота кадров : 29,970 кадров/сек
Битовая глубина : 8 бит
Язык : Russian (RU)

Аудио
Идентификатор : 1
Формат : WMA
Версия формата : Version 2
Идентификатор кодека : 161
Идентификатор кодека/Информация : Windows Media Audio
Описание кодека : Windows Media Audio 9.2 - 48 kbps, 44 kHz, mono 1-pass CBR
Продолжительность : 5 ч. 48 м.
Вид битрейта : Постоянный
Битрейт : 48,0 Кбит/сек
Каналы : 1 канал
Частота : 44,1 КГц
Битовая глубина : 16 бит
Размер потока : 120 Мбайт (12%)
Язык : Russian

Общее
Полное имя : D:\Проги\Видеоуроки\Уроки Python\Python. Уровень 3. Разработка веб - приложений в Django\2012-02-12 09.07 PITON3 15.01-12.02 u-d R.wmv
Формат : Windows Media
Размер файла : 1,27 Гбайт
Продолжительность : 6 ч. 30 м.
Режим общего битрейта : Переменный
Общий поток : 466 Кбит/сек
Максимальный общий битрейт : 597 Кбит/сек
Дата кодирования : UTC 2012-02-12 06:07:09.562
Программа кодирования : 4.8 Build 723 / GoToMeeting
BitRateFrom the writer : 462500
Audio samples : 230691
Video samples : 106663
recording time : Вс, 12 фев 2012 16:13:58 Московское время (зима)

Видео
Идентификатор : 3
Формат : G2M4
Идентификатор кодека : G2M4
Вид битрейта : Переменный
Битрейт : 414 Кбит/сек
Ширина : 1280 пикселей
Высота : 1024 пикселя
Соотношение сторон : 5:4
Режим частоты кадров : Переменный
Номинальная частота кадров : 29,970 кадров/сек
Битовая глубина : 8 бит
Язык : Russian (RU)

Аудио
Идентификатор : 1
Формат : WMA
Версия формата : Version 2
Идентификатор кодека : 161
Идентификатор кодека/Информация : Windows Media Audio
Описание кодека : Windows Media Audio 9.2 - 48 kbps, 44 kHz, mono 1-pass CBR
Продолжительность : 6 ч. 30 м.
Вид битрейта : Постоянный
Битрейт : 48,0 Кбит/сек
Каналы : 1 канал
Частота : 44,1 КГц
Битовая глубина : 16 бит
Размер потока : 134 Мбайт (10%)
Язык : Russian

Общее
Полное имя : D:\Проги\Видеоуроки\Уроки Python\Python. Уровень 3. Разработка веб - приложений в Django\g2m_codec.exe
Формат : MZ
Профиль формата : Executable / Intel i386
Размер файла : 4,28 Мбайт
Дата кодирования : UTC 2010-04-12 22:25:08
Время раздачи: По возможности :ad:piratbit.org



Скачать Специалист через торрент http://pic.kartinco.top/images/2000/g7ob9vlfcy.jpg Скачать фильм Специалист через торрент бесплантно в хорошем качестве Описание: Вы занимаетесь программированием и интересуетесь веб-разработкой? Возможно, имеете определенный практический опыт разработки с ... 9.8 10 6
Info! Золотая раздача, скачанное не засчитывается.
Торрент: Зарегистрирован [2012-05-10 16:27] · скачан: 401 раз
Статус: √ проверено
Размер: 4.85 GB
Как cкачать? Как скачать Специалист через торрент | UTorrent

28-11-2019 20:33  

Отключить всю рекламу на сайте

10-05-2012 17:00 Специалист Скачать торрент  

Скачал. Сидирую 24/7piratbit.org



10-05-2012 22:51 Специалист Скачать торрент  

27-07-2012 21:13 Специалист Скачать торрент  

дайте скоростиpiratbit.org



27-11-2020 18:57 Специалист Скачать торрент  

Dr.FroG, прошу раздать специалиста питона, 3 часть. Очень нужно, заранее спасибоpiratbit.org



    Дорогой пользователь! Огромная просьба, поблагодарите релизера, оцените раздачу и оставьте свои комментарий, если Вы скачали Специалист через торрент бесплатно! Внесите свою лепту в развитие PiratBit!
    Комментировать посты могут только пользователи прошедшие не сложную регистрацию
    Показать сообщения:    

    Специалист через торрент
    Скачать бесплатно Специалист
    Специалист скачать торрент
    Специалист смотреть онлайн
    Cкачать фильм Специалист бесплатно
    Специалист скачать торрент в хорошем качестве
    Специалист смотреть онлайн бесплатно в хорошем качестве


    Вы не можете начинать темы
    Вы не можете отвечать на сообщения
    Вы не можете редактировать свои сообщения
    Вы не можете удалять свои сообщения
    Вы не можете голосовать в опросах
    Вы не можете прикреплять файлы к сообщениям
    Вы можете скачивать файлы