Anonymous, доброй ночи, присоединяйтесь к нам в Telegram!, здесь всегда актуальный адрес сайта, оперативная поддержка и многое другое!

>

5.5

iTunes

7.4

iTunes

7.9

iTunes

1

7.7

1 сезон

6.8

iTunes

7.3

1 сезон

13

6.7

1 сезон

8.3

RePack

30

ULTIMATE

pack

9.9

Лицензия

ВАЖНО

ИГРА 18+

pack

7.3

RePack

MK11

7.7

RePack

jed

7.8

RePack

fifa19

8.5

RePack

RDR2

RePack

NEED FOR SPEED™ PAYBACK

4 сезон

9 сезон

Бесстыжие 9 сезон

Все сериалы

все сериалы на PB.wtf

RePack

FAR CRY 5

Anonymous, доброй ночи, мы катастрофически не успеваем собрать деньги на оплату серверов, помогите нам пожалуйста 5,10,15р., для нас важна любая помощь . В качестве благодарности мы отключим Вам всю рекламу на сайте (укажите свой ник в строку Ваше имя)!

×
  
Magnet ссылка

Пропавший / Missing / Сезон: 1 / Серии: 1-10 (10) (Стив Шилл) [2012, драма, WEB-DLRip] [DUB Невафильм] + Original Eng piratbit.org

Пропавший через торрент piratbit.org

Размер: 4.91 GB | Добавлен: 9 лет 4 мес. назад | Торрент скачан:59 раз
Смотреть онлайн Пропавший | Скачать    Ребята, помогите собрать деньги на оплату серверов!!!

16-05-2012 19:27 Пропавший Скачать торрент  

Пропавший / Missing

Год выпуска: 2012
Страна: США, Чехия
Жанр: драма
Продолжительность: серии по 42 минуты
Перевод: Дублированный [Невафильм]

Режиссёр: Стив Шилл
В ролях: Джейсон Вонг, Эшли Джадд, Шон Бин, Ник Эверсман, Клифф Кёртис, Лаура Доннелли, Фабиан Аломар, Джессика Бун, Кит Кэрредин, Брайан Каспе

Описание: Бекка Уинстон узнает, что ее сын пропал без вести во время учебы за границей. На счету каждая секунда, и она отправляется на его поиски из США в Европу. Удивительные места и невероятные повороты сюжета открываются по мере того, как мать пытается отыскать и защитить сына.

| imdb | kinopoisk | Семпл

Качество: WEB-DLRip
Формат: AVI
Видео кодек: XviD
Аудио кодек: AC3
Видео: 720x400 (1.80:1), 23.976 fps, XviD build 50 ~1278 kbps avg, 0.19 bit/pixel
Аудио: 48 kHz, AC3 Dolby Digital, 2/0 (L,R) ch, ~192.00 kbps avg [rus]
Аудио 2: 48 kHz, AC3 Dolby Digital, 2/0 (L,R) ch, ~192.00 kbps avg [eng]
General
Complete name : Missing.S01E01.WEB-DLRip.IRONCLUB.avi
Format : AVI
Format/Info : Audio Video Interleave
File size : 500 MiB
Duration : 41mn 39s
Overall bit rate : 1 677 Kbps
Writing application : VirtualDubModRus 1.5.10.2 (build 2542/release)
Writing library : VirtualDubMod build 2542/release
Video
ID : 0
Format : MPEG-4 Visual
Format profile : Advanced Simple@L5
Format settings, BVOP : Yes
Format settings, QPel : No
Format settings, GMC : No warppoints
Format settings, Matrix : Default (MPEG)
Codec ID : XVID
Codec ID/Hint : XviD
Duration : 41mn 39s
Bit rate : 1 279 Kbps
Width : 720 pixels
Height : 400 pixels
Display aspect ratio : 16:9
Frame rate : 23.976 fps
Color space : YUV
Chroma subsampling : 4:2:0
Bit depth : 8 bits
Scan type : Progressive
Bits/(Pixel*Frame) : 0.185
Stream size : 381 MiB (76%)
Writing library : XviD 1.2.1 (UTC 2008-12-04)
Audio #1
ID : 1
Format : AC-3
Format/Info : Audio Coding 3
Mode extension : CM (complete main)
Codec ID : 2000
Duration : 41mn 39s
Bit rate mode : Constant
Bit rate : 192 Kbps
Channel(s) : 2 channels
Channel positions : Front: L R
Sampling rate : 48.0 KHz
Bit depth : 16 bits
Stream size : 57.2 MiB (11%)
Alignment : Split accross interleaves
Interleave, duration : 42 ms (1.00 video frame)
Interleave, preload duration : 500 ms
Audio #2
ID : 2
Format : AC-3
Format/Info : Audio Coding 3
Mode extension : CM (complete main)
Codec ID : 2000
Duration : 41mn 39s
Bit rate mode : Constant
Bit rate : 192 Kbps
Channel(s) : 2 channels
Channel positions : Front: L R
Sampling rate : 48.0 KHz
Bit depth : 16 bits
Stream size : 57.2 MiB (11%)
Alignment : Split accross interleaves
Interleave, duration : 42 ms (1.00 video frame)
Interleave, preload duration : 500 ms
Внимание! Раздача ведётся путём добавления новых серий; при каждом добавлении создётся новый торрент. Чтобы начать докачку новой серии, пользователям необходимо сделать следующее: (1) остановить скачивание, (2) удалить старый торрент у себя из клиента (старые серии удалять не надо), (3) скачать новый торрент и запустить его у себя в клиенте вместо старого, при этом указать клиенту путь в старую папку куда и должно происходить скачивание новых серий.
Ваш клиент при этом должен произвести хеширование (проверку) старой папки (если не производит сам - помогите ему сделать это), и будет докачивать только те серии которых у вас ещё нет. Старые серии при этом не удаляются, а продолжают раздаваться!
Eсли вы уже удалили старые серии, то предотвратить повторную закачку старых серий можно, отжав галочку в соответсвующих местах при запуске нового торрента.
piratbit.org



Скачать Пропавший через торрент http://i33.fastpic.ru/big/2012/0430/6f/d3f9ca6c6e986e52a78e7b803e687e6f.png Скачать, смотреть онлайн Пропавший бесплантно в хорошем качестве Описание: Бекка Уинстон узнает, что ее сын пропал без вести во время учебы за границей. На счету каждая секунда, и она отправляется на его ... 5 10 1
Info! Золотая раздача, скачанное не засчитывается.
Торрент: Зарегистрирован [2012-05-27 12:55] · скачан: 59 раз
Статус: √ проверено
Размер: 4.91 GB
Как cкачать? Как скачать Пропавший через торрент | UTorrent



Последний раз редактировалось: wekotila (2012-05-27 12:55), всего редактировалось 1 раз

28-11-2019 20:33  

Отключить всю рекламу на сайте

17-05-2012 13:05 Пропавший Скачать торрент  

Как сериал? =)piratbit.org



27-05-2012 12:56 Пропавший Скачать торрент  

Добавлена заключительная 10 серия!piratbit.org



30-05-2012 13:22 Пропавший Скачать торрент  

Мне понравился, когда 2 сзон?piratbit.org



30-05-2012 13:31 Пропавший Скачать торрент  

Татьяна1983 писал(а):

Мне понравился, когда 2 сзон?

Сериал закрытpiratbit.org



    Дорогой пользователь! Огромная просьба, поблагодарите релизера, оцените раздачу и оставьте свои комментарий, если Вы скачали Пропавший через торрент бесплатно!
    Комментировать посты могут только пользователи прошедшие не сложную регистрацию
    Показать сообщения:    

    Пропавший через торрент
    Скачать бесплатно Пропавший
    Пропавший скачать торрент
    Пропавший смотреть онлайн
    Cкачать фильм Пропавший бесплатно
    Пропавший скачать торрент в хорошем качестве
    Пропавший смотреть онлайн бесплатно в хорошем качестве


    Вы не можете начинать темы
    Вы не можете отвечать на сообщения
    Вы не можете редактировать свои сообщения
    Вы не можете удалять свои сообщения
    Вы не можете голосовать в опросах
    Вы не можете прикреплять файлы к сообщениям
    Вы можете скачивать файлы