Anonymous, добрый день, присоединяйтесь к нам в Telegram!, здесь всегда актуальный адрес сайта, оперативная поддержка и многое другое!

>

5.5

iTunes

7.4

iTunes

7.9

iTunes

1

7.7

1 сезон

6.8

iTunes

7.3

1 сезон

13

6.7

1 сезон

8.3

RePack

30

ULTIMATE

pack

9.9

Лицензия

ВАЖНО

ИГРА 18+

pack

7.3

RePack

MK11

7.7

RePack

jed

7.8

RePack

fifa19

8.5

RePack

RDR2

RePack

NEED FOR SPEED™ PAYBACK

4 сезон

9 сезон

Бесстыжие 9 сезон

Все сериалы

все сериалы на PB.wtf

RePack

FAR CRY 5

Anonymous, добрый день, мы катастрофически не успеваем собрать деньги на оплату серверов, помогите нам пожалуйста 5,10,15р., для нас важна любая помощь . В качестве благодарности мы отключим Вам всю рекламу на сайте (укажите свой ник в строку Ваше имя)!

×
  
Magnet ссылка

В поле зрения / Person of Interest / Сезон: 1 / Серии: 1-23 из 23 (Ричард Дж. Льюис, Дэвид Семел) [2011, Триллер, драма, HDTVRip] MVO (NewStudio) piratbit.org

В поле зрения через торрент piratbit.org

Размер: 11.23 GB | Добавлен: 9 лет 5 мес. назад | Торрент скачан:5 раз
Смотреть онлайн В поле зрения | Скачать    Ребята, помогите собрать деньги на оплату серверов!!!

19-05-2012 08:31 В поле зрения Скачать торрент  

В поле зрения / Person of Interest
Год выпуска: 2011
Страна: США
Жанр: Триллер, драма
Продолжительность: 00:43:45
Перевод: Профессиональный (многоголосый закадровый) - NewStudio
Русские субтитры: нет
Субтитры: отсутствуют
Режиссёр: Ричард Дж. Льюис, Дэвид Семел
В ролях: Джеймс Кэвизел, Майкл Эмерсон, Stanislav Shkilnyi, Узиманн, Тараджи П. Хенсон, Кевин Чэпмен, Куртеней Тейлор, Крис Чок, Жермен Кроуфорд, Брайан Д’Арси Джеймс
Описание: Предполагаемо погибший бывший агент ЦРУ Риз объединяется с таинственным миллионером чтобы предотвращать преступления. Подготовка Риза в проведении операций под прикрытием привлекает внимание миллионера Финча, гения-программиста, который изобрел программу, позволяющую предсказывать преступные склонности людей на базе анализа поведения. Используя последние достижения техники, эти двое часто преступают закон, используя навыки Риза и бесконечное богатство Финча, и останавливают преступников еще до совершения преступления. Действия Риза привлекают к себе внимание детектива Картер из отдела убийств и полицейского Фуско, которого Риз использует в своих целях. Риз и Финч понимают, что правильный человек с правильной информацией в нужное время и в нужном месте может изменить все.

Над релизом работали:
Озвучка: Петр Иващенко (Гланц), Константин Погодаев, Татьяна Еленева
Перевод: Joshua7
Подготовка видео: Koss
Работа со звуком: Koss
Постер: Vortex
Сэмпл: http://multi-up.com/563685
Качество: HDTVRip
Формат: AVI
Видео кодек: XviD
Аудио кодек: MP3
Видео: 720x400 (1.80:1),23.976 fps,1396 kbps avg,0.20 bit/pixel
Аудио: 48 kHz, MPEG Layer 3, 2 ch, 192.00 kbps avg
General
Complete name : I:\Закачки\Person.of.Interest.S01E01.HDTVRip.NewStudio.TV.avi
Format : AVI
Format/Info : Audio Video Interleave
File size : 500 MiB
Duration : 43mn 45s
Overall bit rate : 1 598 Kbps
Writing application : VirtualDubMod 1.5.10.2 (build 2540/release)
Writing library : VirtualDubMod build 2540/release
Video
Format : MPEG-4 Visual
Format profile : Streaming Video@L1
Format settings, BVOP : Yes
Format settings, QPel : No
Format settings, GMC : No warppoints
Format settings, Matrix : Default (MPEG)
Codec ID : XVID
Codec ID/Hint : XviD
Duration : 43mn 45s
Bit rate : 1 396 Kbps
Width : 720 pixels
Height : 400 pixels
Display aspect ratio : 16/9
Frame rate : 23.976 fps
Resolution : 24 bits
Colorimetry : 4:2:0
Scan type : Progressive
Bits/(Pixel*Frame) : 0.202
Stream size : 437 MiB (87%)
Writing library : XviD 64
Audio
Format : MPEG Audio
Format version : Version 1
Format profile : Layer 3
Codec ID : 55
Codec ID/Hint : MP3
Duration : 43mn 45s
Bit rate mode : Constant
Bit rate : 192 Kbps
Channel(s) : 2 channels
Sampling rate : 48.0 KHz
Resolution : 16 bits
Stream size : 60.1 MiB (12%)
Alignment : Aligned on interleaves
Interleave, duration : 42 ms (1.00 video frame)
Interleave, preload duration : 504 ms
Раздача ведётся путём добавления новых серий; при каждом добавлении создаётся новый торрент. Чтобы начать докачку новой серии, пользователям необходимо сделать следующее:
(1) остановить скачивание,
(2) удалить старый торрент у себя из клиента (старые серии удалять не надо),
(3) скачать новый торрент и запустить его у себя в клиенте вместо старого, при этом указать клиенту путь в старую папку куда и должно происходить скачивание новых серий.
Ваш клиент при этом должен произвести хеширование (проверку) старой папки (если не производит сам - помогите ему сделать это), и будет докачивать только те серии которых у вас ещё нет. Старые серии при этом не удаляются, а продолжают раздаваться!
Eсли вы уже удалили старые серии, то предотвратить повторную закачку старых серий можно, отжав галочку в соответствующих местах при запуске нового торрента. По возможности, желательно не удалять старые серии как можно дольше чтобы релизёр не столько продолжал раздавать старые серии, а смог сконцентрироваться на новых.
piratbit.org



Скачать В поле зрения через торрент http://i31.fastpic.ru/big/2011/0925/bf/7e4ea61360546f2d79ec847a3bace8bf.png Скачать, смотреть онлайн В поле зрения бесплантно в хорошем качестве Описание: Предполагаемо погибший бывший агент ЦРУ Риз объединяется с таинственным миллионером чтобы предотвращать преступления. Подготовка ... 10 10 8
Info! Золотая раздача, скачанное не засчитывается.
Торрент: Зарегистрирован [2012-05-22 15:25] · скачан: 5 раз
Статус: √ проверено
Размер: 11.23 GB
Как cкачать? Как скачать В поле зрения через торрент | UTorrent

% Раздел Тема Автор DL S | L
Зарубежные сериалы [ 27.71 GB ] Подозреваемый / В поле зрения / Person of Interest/ Сезон: 4 / серии 1-16 из 23 [2014 WEB-DL 1080p ] MVO NewStudio Assasinca Скачать
1 | 0

28-11-2019 20:33  

Отключить всю рекламу на сайте

22-05-2012 15:26 В поле зрения Скачать торрент  

Добавлена заключительная 23 серия!piratbit.org



    Дорогой пользователь! Огромная просьба, поблагодарите релизера, оцените раздачу и оставьте свои комментарий, если Вы скачали В поле зрения через торрент бесплатно!
    Комментировать посты могут только пользователи прошедшие не сложную регистрацию
    Показать сообщения:    

    В поле зрения через торрент
    Скачать бесплатно В поле зрения
    В поле зрения скачать торрент
    В поле зрения смотреть онлайн
    Cкачать фильм В поле зрения бесплатно
    В поле зрения скачать торрент в хорошем качестве
    В поле зрения смотреть онлайн бесплатно в хорошем качестве


    Вы не можете начинать темы
    Вы не можете отвечать на сообщения
    Вы не можете редактировать свои сообщения
    Вы не можете удалять свои сообщения
    Вы не можете голосовать в опросах
    Вы не можете прикреплять файлы к сообщениям
    Вы можете скачивать файлы