2 сезон

iTunes

MVO

1

2 сезон

iTunes

iTunes

1 сезон

RePack

30

Новинка

ВАЖНО

ИГРА 18+

pack

RePack

MK11
pack

Легкие деньги

RePack

jed

RePack

fifa19

RePack

RDR2

RePack

NEED FOR SPEED™ PAYBACK

4 сезон

9 сезон

Бесстыжие 9 сезон

Все сериалы

все сериалы на PB.wtf

RePack

FAR CRY 5

Anonymous, добрый день, мы не успеваем собрать деньги на оплату серверов за декабрь и январь, помогите нам пожалуйста в это трудное время. В качестве благодарности мы отключим Вам всю рекламу на сайте (укажите свой ник в строку Ваше имя)!

×
  
Magnet ссылка

Белый тигр (Карен Шахназаров) [2012 г., Военный, Триллер, Детектив, DVDRip-AVC, Оригинал] piratbit.org

Белый тигр через торрент piratbit.org

Размер: 2.18 GB | Добавлен: 8 лет 7 мес. назад | Торрент скачан:589 раз
Скачать  

01-06-2012 09:47 Белый тигр Скачать торрент  

Белый тигр (2012) DVDRip

Год выпуска: 2012
Страна: Россия / Первый канал, Мосфильм
Жанр: Военный, Триллер, Детектив
Продолжительность: 01:44:06
Перевод: Оригинал
Тип релиза: Лицензия

Режиссер: Карен Шахназаров
Продюссер: Карен Шахназаров, Галина Шадур
Сценарий: Александр Бородянский, Карен Шахназаров, Илья Бояшов

Премьера в мире: 3 мая 2012, «Каропрокат»
Релиз на DVD: 31 мая 2012, «Союз-Видео»
Релиз на Blu-Ray :28 июня 2012, «Союз-Видео»



В ролях: Виталий Кищенко, Алексей Вертков, Владимир Ильин, Александр Вахов, Виталий Дорджиев ,Валерий Гришко, Кристиан Редль, Карл Кранцковски, Леонид Орлов, Дмитрий Быковский-Ромашов

Описание: Вторая Мировая война подходит к концу. Тяжелые затяжные бои изматывают обе стороны. Но чем увереннее наступают советские войска, тем чаще на полях сражений появляется огромным неуязвимый немецкий танк «Белый Тигр».

Внезапно возникает он в дыму сражений, безжалостно расстреливает своих противников и неожиданно исчезает. Советское командование решает для борьбы с «Белым Тигром» создать особый танк — специальную модель Т-34—85.

Качество: DVDRip-AVC
Формат: MKV
Видео кодек: H.264
Аудио кодек: AC3 5.1
Видео: ~2553 kbps, 1024х568, 16:9, 25,000 кадров/сек
Аудио: AC3 5.1, 448 Kbps, 48,0 КГц













Общее
Уникальный идентификатор : 240002586399542564447902784651593269711 (0xB48ED119001C913A8E175ECE390041CF)
Полное имя : F:\Beliy.Tigr.2012.DVDRip-AVC.mkv
Формат : Matroska
Версия формата : Version 2
Размер файла : 2,18 Гбайт
Продолжительность : 1 ч. 44 м.
Общий поток : 3002 Кбит/сек
Дата кодирования : UTC 2012-05-26 07:50:57
Программа кодирования : mkvmerge v4.9.1 ('Ich will') сборка от Jul 11 2011 23:53:15
Библиотека кодирования : libebml v1.2.1 + libmatroska v1.1.1

Видео
Идентификатор : 1
Формат : AVC
Формат/Информация : Advanced Video Codec
Профиль формата : High@L3.1
Параметр CABAC формата : Да
Параметр ReFrames формата : 7 кадров
Идентификатор кодека : V_MPEG4/ISO/AVC
Продолжительность : 1 ч. 44 м.
Битрейт : 2553 Кбит/сек
Ширина : 1024 пикселя
Высота : 568 пикселей
Соотношение сторон : 16:9
Частота кадров : 25,000 кадров/сек
Цветовое пространство : YUV
Субдискретизация насыщенности : 4:2:0
Битовая глубина : 8 бит
Тип развёртки : Прогрессивная
Бит/(Пиксели*Кадры) : 0.176
Размер потока : 1,81 Гбайт (83%)
Библиотека кодирования : x264 core 116 r2044 392e762
Настройки программы : cabac=1 / ref=7 / deblock=1:0:0 / analyse=0x3:0x113 / me=hex / subme=9 / psy=1 / psy_rd=1.00:0.00 / mixed_ref=1 / me_range=16 / chroma_me=1 / trellis=1 / 8x8dct=1 / cqm=0 / deadzone=21,11 / fast_pskip=1 / chroma_qp_offset=-2 / threads=6 / sliced_threads=0 / nr=0 / decimate=1 / interlaced=0 / bluray_compat=0 / constrained_intra=0 / bframes=3 / b_pyramid=2 / b_adapt=1 / b_bias=0 / direct=3 / weightb=1 / open_gop=0 / weightp=2 / keyint=250 / keyint_min=25 / scenecut=40 / intra_refresh=0 / rc_lookahead=40 / rc=2pass / mbtree=1 / bitrate=2553 / ratetol=1.0 / qcomp=0.60 / qpmin=0 / qpmax=69 / qpstep=4 / cplxblur=20.0 / qblur=0.5 / ip_ratio=1.40 / aq=1:1.00

Аудио
Идентификатор : 2
Формат : AC-3
Формат/Информация : Audio Coding 3
Расширение режима : CM (complete main)
Идентификатор кодека : A_AC3
Продолжительность : 1 ч. 44 м.
Вид битрейта : Постоянный
Битрейт : 448 Кбит/сек
Каналы : 6 каналов
Расположение каналов : Front: L C R, Side: L R, LFE
Частота : 48,0 КГц
Битовая глубина : 16 бит
Метод сжатия : С потерями
Размер потока : 334 Мбайт (15%)

piratbit.org



Скачать Белый тигр через торрент http://i36.fastpic.ru/big/2012/0526/3c/f7b4fa61069f5280d40e3c1bdfa1c33c.png Скачать фильм Белый тигр через торрент бесплантно в хорошем качестве Описание: Вторая Мировая война подходит к концу. Тяжелые затяжные бои изматывают обе стороны. Но чем увереннее наступают советские войска, ... 4 10 8
Info! Золотая раздача, скачанное не засчитывается.
Торрент: Зарегистрирован [2012-06-01 09:47] · скачан: 589 раз
Статус: √ проверено
Размер: 2.18 GB
Как cкачать? Как скачать Белый тигр через торрент | UTorrent

% Раздел Тема Автор DL S | L
Наши фильмы 2012 [ 1.37 GB ] Белый тигр [2012 военный HDRip] / лицензия | Rauli Скачать
1 | 1
Наши фильмы 2012 [ 2.04 GB ] Белый тигр [2012 военный BDRip ] AlexG77 Скачать
1 | 0
Наши фильмы 2012 [ 700 MB ] Белый тигр [2012 военный DVDRip Оригинал] кэп Скачать
1 | 0
Наши фильмы 2012 [ 1.38 GB ] Белый тигр [2012 Военный DVDRip лицензия] -=Cherry=- Скачать
1 | 0
Наши фильмы 2012 [ 5.04 GB ] Белый тигр [2012 военный BDRip 720p] sergey82 Скачать
1 | 0
Наши фильмы (DVD фильмы) [ 7.47 GB ] Белый тигр [2012 военный DVD9 Оригинал] shuller Скачать
1 | 0
Наши фильмы 2012 [ 2.05 GB ] Белый тигр [2012 Военный DVDRip лицензия] Mr. Freeman Скачать
1 | 0


Последний раз редактировалось: vadson993 (2012-06-01 10:21), всего редактировалось 1 раз

28-11-2019 20:33  

Отключить всю рекламу на сайте

01-06-2012 11:06 Белый тигр Скачать торрент  

:doubledown: piratbit.org



03-06-2012 13:48 Белый тигр Скачать торрент  

В принципе фильм понравился, начало хорошее, дальше похуже. Главный герой не вписывается в картину, надо было поискать другого. Мало сцен битв, всего две, первая где появляется «белый тигр» особенно понравилась. Концовка так себе, ожидал большего.piratbit.org



06-06-2012 18:57 Белый тигр Скачать торрент  

Глупый фильм. Пора уже к ответу призывать за трату народных средств на всякую шнягу!piratbit.org



13-06-2012 14:39 Белый тигр Скачать торрент  

Подтверждаю. Проходняк. ИМХО.
Речь Гитлер в конце добила. Сразу бы начали с нее и время не нужно было тратить.piratbit.org



16-06-2012 10:04 Белый тигр Скачать торрент  

реально чушь редкостная пргомотр просто трата времениpiratbit.org



07-09-2012 20:35 Белый тигр Скачать торрент  

Фильм отличный - сильный, эмоциональный.piratbit.org



    Дорогой пользователь! Огромная просьба, поблагодарите релизера, оцените раздачу и оставьте свои комментарий, если Вы скачали Белый тигр через торрент бесплатно! Внесите свою лепту в развитие PiratBit!
    Комментировать посты могут только пользователи прошедшие не сложную регистрацию
    Показать сообщения:    

    Белый тигр через торрент
    Скачать бесплатно Белый тигр
    Белый тигр скачать торрент
    Белый тигр смотреть онлайн
    Cкачать фильм Белый тигр бесплатно
    Белый тигр скачать торрент в хорошем качестве
    Белый тигр смотреть онлайн бесплатно в хорошем качестве


    Вы не можете начинать темы
    Вы не можете отвечать на сообщения
    Вы не можете редактировать свои сообщения
    Вы не можете удалять свои сообщения
    Вы не можете голосовать в опросах
    Вы не можете прикреплять файлы к сообщениям
    Вы можете скачивать файлы