1 сезон

3 сезон

iTunes

1

iTunes

MVO

iTunes

13

1 сезон

RePack

30

Deluxe

pack

Лицензия

ВАЖНО

ИГРА 18+

pack

RePack

MK11

RePack

jed

RePack

fifa19

RePack

RDR2

RePack

NEED FOR SPEED™ PAYBACK

4 сезон

9 сезон

Бесстыжие 9 сезон

Все сериалы

все сериалы на PB.wtf

RePack

FAR CRY 5

Anonymous, доброй ночи, мы катастрофически не успеваем собрать деньги на оплату серверов, помогите нам пожалуйста 5,10,15р., для нас важна любая помощь . В качестве благодарности мы отключим Вам всю рекламу на сайте (укажите свой ник в строку Ваше имя)!

×
  
Magnet ссылка

Логика измены / XX / XY (Остин Чик) [2002 г., драма, мелодрама, DVDRip, DVO] piratbit.org

Логика измены через торрент piratbit.org

Размер: 1.41 GB | Добавлен: 9 лет 1 мес. назад | Торрент скачан:22 раза
Скачать  

03-06-2012 19:44 Логика измены Скачать торрент  

[img=right]http://n1. СПАМ

Логика измены / XX / XY

Год выпуска: 2002
Страна: США
Жанр: драма, мелодрама
Продолжительность: 1:31:03
Перевод: Профессиональный (двухголосый)

Режиссер: Остин Чик
Продюссер: Исен Роббинс, Митчел Роббинс, Айми Шуф
Сценарий: Остин Чик

Бюджет: $104 130
Премьера в мире: 11 января 2002



В ролях: Марк Руффало, Мая Стенж, Кэтлин Робертсон, Кел О’Нил, Уильям Килер, Паула Рот, Ли Кобб, Зэк Шаффер, Джон А. Маккэй, Томми Нохилли, Джефф Уорд, Ивэн Ньюманн, Петра Райт, Сэм Цуккерман, Дженна Джолли, Дэвид Торнтон, Джои Керн, Джордан Лейдж, Джошуа Спэффорд, Мариса Николь Браун, Дж.Т. Томас, Мария Бунина, Кэтрин Фэллон, Бранко Томович

Описание: Иногда две половинки одной любви не складываются, поскольку для идеального сочетания необходим третий элемент. Когда подруги Сэм и Tea встречают на вечеринке в колледже Коулза, девушки бросаются с головой в один омут и одну постель. Любовный треугольник — самая непрочная фигура в арифметике любви, и скоро судьба разводит его участников по разным углам.Но через десять лет пути молодых людей вновь пересекаются, и семена угасших было отношений попадают на новую, зрелую почву. Только на этот раз их совместная интрига далека от юношеских игр.

Качество: DVDRip
Формат: AVI
Видео кодек: XviD
Аудио кодек: AC3
Видео: 704x368 (1.91:1); 23.976 fps; 1816 kbps; 0.29 bit/pixel
Аудио#1: (RUS): 48 kHz; 2/0 (L,R) ch; 192.00 kbps
Аудио#2: (ENG): 48 kHz; 2/0 (L,R) ch; 192.00 kbps
[URL=http:// СПАМ

Общее
Полное имя : D:\_TORRENTS\Логика измены (2002)\Логика измены (2002).avi
Формат : AVI
Формат/Информация : Audio Video Interleave
Размер файла : 1,41 Гбайт
Продолжительность : 1 ч. 31 м.
Общий поток : 2216 Кбит/сек
Программа кодирования : FairUse Wizard - http://fairusewizard.com
Библиотека кодирования : The best and REALLY easy backup tool

Видео
Идентификатор : 0
Формат : MPEG-4 Visual
Профиль формата : Advanced Simple@L5
Параметр BVOP формата : 1
Параметр QPel формата : Нет
Параметр GMC формата : Без точки перехода
Параметр матрицы формата : Default (MPEG)
Режим смешивания : Сжатый битовый поток
Идентификатор кодека : XVID
Идентификатор кодека/Подсказка : XviD
Продолжительность : 1 ч. 31 м.
Битрейт : 1817 Кбит/сек
Ширина : 704 пикс.
Высота : 368 пикс.
Соотношение сторон : 1,913
Частота кадров : 23,976 кадр/сек
Цветовое пространство : YUV
Подвыборка цветности : 4:2:0
Битовая глубина : 8 бит
Тип развёртки : Прогрессивная
Метод сжатия : С потерями
Бит/(Пиксели*Кадры) : 0.293
Размер потока : 1,16 Гбайт (82%)
Библиотека кодирования : XviD 1.2.0.dev47 (UTC 2006-11-01)

Аудио #1
Идентификатор : 1
Формат : AC-3
Формат/Информация : Audio Coding 3
Расширение режима : CM (complete main)
Идентификатор кодека : 2000
Продолжительность : 1 ч. 31 м.
Вид битрейта : Постоянный
Битрейт : 192 Кбит/сек
Каналы : 2 канала
Расположение каналов : Front: L R
Частота : 48,0 КГц
Битовая глубина : 16 бит
Метод сжатия : С потерями
Размер потока : 125 Мбайт (9%)
Выравнивание : Разделение по промежуткам
Продолжительность промежутка : 42 мс. (1,00 видеокадр)
Время предзагрузки промежутка : 500 ms

Аудио #2
Идентификатор : 2
Формат : AC-3
Формат/Информация : Audio Coding 3
Профиль формата : Dolby Digital
Расширение режима : CM (complete main)
Идентификатор кодека : 2000
Продолжительность : 1 ч. 31 м.
Вид битрейта : Постоянный
Битрейт : 192 Кбит/сек
Каналы : 2 канала
Расположение каналов : Front: L R
Частота : 48,0 КГц
Битовая глубина : 16 бит
Метод сжатия : С потерями
Размер потока : 125 Мбайт (9%)
Выравнивание : Разделение по промежуткам
Продолжительность промежутка : 42 мс. (1,00 видеокадр)
Время предзагрузки промежутка : 500 ms

piratbit.org



Скачать Логика измены через торрент http://www.kinopoisk.ru/rating/21097.gif Скачать фильм Логика измены через торрент бесплантно в хорошем качестве Описание: Иногда две половинки одной любви не складываются, поскольку для идеального сочетания необходим третий элемент. Когда подруги Сэм ... 4 10 1
Info! Золотая раздача, скачанное не засчитывается.
Торрент: Зарегистрирован [2012-06-03 19:44] · скачан: 22 раз
Статус: √ проверено
Размер: 1.41 GB
Как cкачать? Как скачать Логика измены через торрент | UTorrent

28-11-2019 20:33  

Отключить всю рекламу на сайте

    Дорогой пользователь! Огромная просьба, поблагодарите релизера, оцените раздачу и оставьте свои комментарий, если Вы скачали Логика измены через торрент бесплатно! Внесите свою лепту в развитие PiratBit!
    Комментировать посты могут только пользователи прошедшие не сложную регистрацию
    Показать сообщения:    

    Логика измены через торрент
    Скачать бесплатно Логика измены
    Логика измены скачать торрент
    Логика измены смотреть онлайн
    Cкачать фильм Логика измены бесплатно
    Логика измены скачать торрент в хорошем качестве
    Логика измены смотреть онлайн бесплатно в хорошем качестве


    Вы не можете начинать темы
    Вы не можете отвечать на сообщения
    Вы не можете редактировать свои сообщения
    Вы не можете удалять свои сообщения
    Вы не можете голосовать в опросах
    Вы не можете прикреплять файлы к сообщениям
    Вы можете скачивать файлы