1 сезон

3 сезон

iTunes

1

iTunes

MVO

iTunes

13

1 сезон

RePack

30

Deluxe

pack

Лицензия

ВАЖНО

ИГРА 18+

pack

RePack

MK11

RePack

jed

RePack

fifa19

RePack

RDR2

RePack

NEED FOR SPEED™ PAYBACK

4 сезон

9 сезон

Бесстыжие 9 сезон

Все сериалы

все сериалы на PB.wtf

RePack

FAR CRY 5

Anonymous, добрый вечер, мы катастрофически не успеваем собрать деньги на оплату серверов, помогите нам пожалуйста 5,10,15р., для нас важна любая помощь . В качестве благодарности мы отключим Вам всю рекламу на сайте (укажите свой ник в строку Ваше имя)!

×
  
Magnet ссылка

Рекрут / The Recruit (Роджер Дональдсон) [2003 г., боевик, триллер, драма, криминал, BDRip, Профессиональный (многоголосый)] piratbit.org

Рекрут через торрент piratbit.org

Размер: 2.18 GB | Добавлен: 9 лет 1 мес. назад | Торрент скачан:179 раз
Скачать  

12-06-2012 13:18 Рекрут Скачать торрент  

Рекрут / The Recruit

Год выпуска: 2003
Страна: США
Жанр: боевик, триллер, драма, криминал
Продолжительность: 01:55:01
Перевод: Профессиональный (многоголосый)

Режиссер: Роджер Дональдсон
Продюссер: Джефф Эппл, Гари Барбер, Роджер Бернбаум, ...
Сценарий: Роджер Таун, Курт Уиммер, Митч Глейзер

Премьера в мире: 25 января 2003

IMDb: 6.50 (63 920)


В ролях: Аль Пачино, Колин Фаррелл, Бриджет Мойнэхэн, Гэбриел Махт, Кеннет Митчел, Майк Рилба, Рон Лиа, Карл Прюнер, Джини Колледжа, Дженни Ливайн

Описание: Джеймс Клэйтон вовсе не мечтал о карьере шпиона. Но соблазн узнать правду о таинственном исчезновении в 1990 году своего отца — секретного агента, заставляет его завербоваться в ЦРУ. Новоиспеченный рекрут неплохо проходит один тест за другим, однако задания становятся все изощреннее.

Обыденные события оказываются скрытой проверкой, а наставник героя, матерый разведчик Уолтер Берк все настойчивее намекает: происходящее на самом деле может быть не тем, чем кажется. Обстановка накаляется с каждым днем, и однажды Клэйтон узнает причину этого: в Лэнгли завелся «крот», и именно ему предстоит вычислить предателя.

Что это, очередной тест? Или шутки кончились, и на кону — национальная безопасность?..

Качество: BDRip
Формат: AVI
Видео кодек: XviD
Аудио кодек: AC3
Видео: 720x304 (2.37:1), 23.976 fps, XviD build 50 ~1814 kbps avg, 0.34 bit/pixel
Аудио#1: 48 kHz, AC3 Dolby Digital, 3/2 (L,C,R,l,r) + LFE ch, ~448 kbps
Аудио#2: 48 kHz, AC3 Dolby Digital, 3/2 (L,C,R,l,r) + LFE ch, ~448 kbps








General
Complete name : D:\Фильмы\Ост\Rekrut.2003.DUAL.BDRip.XviD.AC3.-HELLYWOOD.avi
Format : AVI
Format/Info : Audio Video Interleave
Format profile : OpenDML
File size : 2.18 GiB
Duration : 1h 55mn
Overall bit rate : 2 717 Kbps
Movie name : Рекрут / The Recruit (2003) BDRip
Director : miley8
Writing application : VirtualDubMod 1.5.10.2 (build 2542/release)
Copyright : http://www.hellywood.ru
Comment : 13.08.2009

Video
ID : 0
Format : MPEG-4 Visual
Format profile : Advanced Simple@L5
Format settings, BVOP : 1
Format settings, QPel : No
Format settings, GMC : No warppoints
Format settings, Matrix : Custom
Codec ID : XVID
Codec ID/Hint : XviD
Duration : 1h 55mn
Bit rate : 1 803 Kbps
Width : 720 pixels
Height : 304 pixels
Display aspect ratio : 2.35:1
Frame rate : 23.976 fps
Color space : YUV
Chroma subsampling : 4:2:0
Bit depth : 8 bits
Scan type : Progressive
Compression mode : Lossy
Bits/(Pixel*Frame) : 0.344
Stream size : 1.45 GiB (66%)
Writing library : XviD 1.2.1 (UTC 2008-12-04)

Audio #1
ID : 1
Format : AC-3
Format/Info : Audio Coding 3
Mode extension : CM (complete main)
Codec ID : 2000
Duration : 1h 55mn
Bit rate mode : Constant
Bit rate : 448 Kbps
Channel(s) : 6 channels
Channel positions : Front: L C R, Side: L R, LFE
Sampling rate : 48.0 KHz
Bit depth : 16 bits
Compression mode : Lossy
Stream size : 369 MiB (16%)
Alignment : Split accross interleaves
Interleave, duration : 42 ms (1.00 video frame)
Interleave, preload duration : 500 ms

Audio #2
ID : 2
Format : AC-3
Format/Info : Audio Coding 3
Mode extension : CM (complete main)
Codec ID : 2000
Duration : 1h 55mn
Bit rate mode : Constant
Bit rate : 448 Kbps
Channel(s) : 6 channels
Channel positions : Front: L C R, Side: L R, LFE
Sampling rate : 48.0 KHz
Bit depth : 16 bits
Compression mode : Lossy
Stream size : 369 MiB (16%)
Alignment : Split accross interleaves
Interleave, duration : 42 ms (1.00 video frame)
Interleave, preload duration : 500 ms

piratbit.org



Скачать Рекрут через торрент https://pic1.kartinco.top/images/111/kqm4k93thn.jpg Скачать фильм Рекрут через торрент бесплантно в хорошем качестве Описание: Джеймс Клэйтон вовсе не мечтал о карьере шпиона. Но соблазн узнать правду о таинственном исчезновении в 1990 году своего отца — ... 9 10 6
Info! Золотая раздача, скачанное не засчитывается.
Торрент: Зарегистрирован [2012-06-12 13:18] · скачан: 179 раз
Статус: √ проверено
Размер: 2.18 GB
Как cкачать? Как скачать Рекрут через торрент | UTorrent

% Раздел Тема Автор DL S | L
Фильмы (HD 720p, 1080p) (48-60 fps) [ 5.45 GB ] Рекрут / The Recruit [2003 BDRip 720p / 60 FPS] DUB + 2xMVO + 3xAVO - от R.G. HD-Films slaventi-69 Скачать
2 | 0
Фильмы [HD 720p, 1080p] (Хороший звук DUB, MVO) [ 8.85 GB ] Рекрут / The Recruit [2003 BDRip-HEVC 1080p ] [GER Transfer] DUB+2xMVO+AVO bober100 Скачать
1 | 0
Фильмы с авторской озвучкой [ 1.45 GB ] Рекрут / The Recruit [2003 HDRip] [AVO] killermax2013 Скачать
1 | 0
Фильмы [HD 720p, 1080p] (Хороший звук DUB, MVO) [ 10.36 GB ] Рекрут / The Recruit [2003 BDRip 1080p + MVO+AVO GER Transfer _denis_100 Скачать
1 | 0
Фильмы 2001-2005 [ 1.45 GB ] Рекрут / The Recruit [2003 BDRip DUB + MVO ] bogyn Скачать
1 | 0
Фильмы 2001-2005 [ 1.46 GB ] Рекрут / Recruit The [2002 HQRip] MoNaZ Скачать
1 | 0

28-11-2019 20:33  

Отключить всю рекламу на сайте

13-06-2012 12:54 Рекрут Скачать торрент  

хороший фильм!!!!!!piratbit.org



14-07-2013 08:26 Рекрут Скачать торрент  

Скорости нет.piratbit.org



02-04-2015 11:46 Рекрут Скачать торрент  

Скорости бы....piratbit.org



    Дорогой пользователь! Огромная просьба, поблагодарите релизера, оцените раздачу и оставьте свои комментарий, если Вы скачали Рекрут через торрент бесплатно! Внесите свою лепту в развитие PiratBit!
    Комментировать посты могут только пользователи прошедшие не сложную регистрацию
    Показать сообщения:    

    Рекрут через торрент
    Скачать бесплатно Рекрут
    Рекрут скачать торрент
    Рекрут смотреть онлайн
    Cкачать фильм Рекрут бесплатно
    Рекрут скачать торрент в хорошем качестве
    Рекрут смотреть онлайн бесплатно в хорошем качестве


    Вы не можете начинать темы
    Вы не можете отвечать на сообщения
    Вы не можете редактировать свои сообщения
    Вы не можете удалять свои сообщения
    Вы не можете голосовать в опросах
    Вы не можете прикреплять файлы к сообщениям
    Вы можете скачивать файлы