MEGA SALE -50% FORZA HORIZON 4 ULTIMATE+ВСЕ DLC+ОНЛАЙН всего за 599р. 299 руб. (супер цена). Внимание количество ограничено!!!

iTunes

1+1

iTunes

мы

iTunes

1

iTunes

Чернобыль

1 сезон

Ральф против интернета

Лицензия

ПШазам

Лицензия

Игра престолов

Лицензия

30
pack

ВАЖНО

!!Акция!!

Alien_RageХит недели

RePack

Resident Evil 21

ИГРА 18+

pack

RePack

Metro:Exodus

!!Акция!!

Alien_Rage

RePack

fifa19

RePack

Assassins Creed: Odyssey

RePack

NEED FOR SPEED™ PAYBACK

3 сезон

9 сезон

Бесстыжие 9 сезон

Все сериалы

все сериалы на PB.wtf

RePack

FAR CRY 5
Ребята, катастрофически не хватает 7730р. для оплаты серверов за ИЮЛЬ (всвязи с блокировками трафик упал в 3 раза), 1-2р., выручайте.
  

Багдадский вор / The Thief of Bagdad (Людвиг Бергер, Майкл Пауэлл, Тим Уилан) [1940 г., фэнтези, приключения, семейный, DVDRip, Профессиональный (многоголосый)] piratbit.org

Багдадский вор через торрент piratbit.org

Размер: 1.37 GB | Добавлен: 7 лет 2 мес. назад | Торрент скачан:24 раза
Скачать  

19-06-2012 15:34 Багдадский вор Скачать торрент  

Багдадский вор / The Thief of Bagdad

Год выпуска: 1940
Страна: Великобритания
Жанр: фэнтези, приключения, семейный
Продолжительность: 01:41:48
Перевод: Профессиональный (многоголосый)
Субтитры: Отсутствуют

Режиссер: Людвиг Бергер, Майкл Пауэлл, Тим Уилан
Продюссер: Александр Корда, Золтан Корда, Уильям Кэмерон Мензиес

Премьера в мире: 5 декабря 1940

IMDB 7.70 (5 717)


В ролях: Конрад Фейдт, Сабу, Джун Дюпрез, Джон Джастин, Рекс Ингрэм, Майлз Маллесон, Мортон Селтен, Мэри Моррис, Брюс Уинстон, Хэй Питри

Описание: В славном городе Багдаде, в великолепном дворце, в атмосфере роскоши и неги жил молодой король Ахмет, наследник, великого царя Гарун Аль Рашида. Был король Ахмет красив, и имел он 365 жен, но в душе короля не жила любовь. И не знал он проблем своего народа, потому что между королем и его подданными стоял великий визирь Джафар — колдун и интриган.
Именно Джафар предложил скучающему правителю заманчивую идею переодеться бедняком и «инкогнито» совершить «познавательную» экскурсию по родному городу. А когда наивный Ахмет последовал совету своего «верного» визиря, коварный Джафар объявил короля сумасшедшим, приказал схватить его и бросить в темницу. В тюрьме Ахмет подружился с мелким воришкой Абу, и они вместе бежали в соседнее королевство. Там царственный изгнанник влюбился в юную принцессу, и принцесса ответила ему взаимностью…
Но колдун Джафар решил помешать счастью влюбленных. Он наложил проклятье на Ахмета, ослепив юношу, а его товарища Абу превратил в собаку…

Качество: DVDRip
Формат: AVI
Видео кодек: XviD
Аудио кодек: AC3
Видео: 720x544 (1.32:1), 25 fps, XviD build 50 ~1531 kbps avg, 0.16 bit/pixel
Аудио#1: Русский: 48 kHz, AC3 Dolby Digital, 3/2 (L,C,R,l,r) + LFE ch, ~384 kbps



Общее
Полное имя : F:\Закачки\Bagdadskiy.Vor.1940.DVDRip.avi
Формат : AVI
Формат/Информация : Audio Video Interleave
Размер файла : 1,37 Гбайт
Продолжительность : 1 ч. 41 м.
Общий поток : 1922 Кбит/сек
Режиссёр : AndrewWhite KinozalSat.com
Библиотека кодирования : VirtualDubMod build 2178/release

Видео
Идентификатор : 0
Формат : MPEG-4 Visual
Профиль формата : Advanced Simple@L5
Параметр BVOP формата : 1
Параметр QPel формата : Нет
Параметр GMC формата : Без точки перехода
Параметр матрицы формата : Выборочная
Идентификатор кодека : XVID
Идентификатор кодека/Подсказка : XviD
Продолжительность : 1 ч. 41 м.
Битрейт : 1531 Кбит/сек
Ширина : 720 пикселей
Высота : 544 пикселя
Соотношение сторон : 4:3
Частота кадров : 25,000 кадров/сек
Цветовое пространство : YUV
Субдискретизация насыщенности : 4:2:0
Битовая глубина : 8 бит
Тип развёртки : Прогрессивная
Метод сжатия : С потерями
Бит/(Пиксели*Кадры) : 0.156
Размер потока : 1,09 Гбайт (80%)
Библиотека кодирования : XviD 1.2.1 (UTC 2008-12-04)

Аудио
Идентификатор : 1
Формат : AC-3
Формат/Информация : Audio Coding 3
Расширение режима : CM (complete main)
Параметр Endianness формата : Big
Идентификатор кодека : 2000
Продолжительность : 1 ч. 41 м.
Вид битрейта : Постоянный
Битрейт : 384 Кбит/сек
Каналы : 6 каналов
Расположение каналов : Front: L C R, Side: L R, LFE
Частота : 48,0 КГц
Битовая глубина : 16 бит
Метод сжатия : С потерями
Размер потока : 280 Мбайт (20%)
Выравнивание : Разделение по промежуткам
Продолжительность промежутка : 96 мс. (2,40 видеокадра)
Время предзагрузки промежутка : 96 мс.

piratbit.org



Скачать Багдадский вор через торрент http://pic.kartinco.top/images/1/hh7pvfcj1k.jpg Скачать фильм Багдадский вор через торрент бесплантно в хорошем качестве Описание: В славном городе Багдаде, в великолепном дворце, в атмосфере роскоши и неги жил молодой король Ахмет, наследник, великого царя ... 10 10 2
Info! Золотая раздача, скачанное не засчитывается.
Торрент: Зарегистрирован [2012-06-19 15:34] · скачан: 24 раз
Статус: √ проверено
Размер: 1.37 GB
Как cкачать? Как скачать Багдадский вор через торрент | qTorrent

% Раздел Тема Автор DL S | L
Фильмы (DVD фильмы) [ 4.35 GB ] Багдадский вор / The Thief of Bagdad [1940 DVD5 Пиратка] BISO Скачать
1 | 0


>> Регистрируемся здесь <<






Отзывы и комментарии о схеме читаем и пишем здесь: ---> Отзывы и комментарии о схеме

Новые благодарочки в телеграм довольных пользователей:
скриншот   скриншот   скриншот   скриншот   скриншот
    Дорогой пользователь! Огромная просьба, поблагодарите релизера, оцените раздачу и оставьте свои комментарий, если Вы скачали Багдадский вор через торрент бесплатно! Внесите свою лепту в развитие PiratBit!
    Комментировать посты могут только пользователи прошедшие не сложную регистрацию
    Показать сообщения:    

    Багдадский вор через торрент
    Скачать бесплатно Багдадский вор
    Багдадский вор скачать торрент
    Багдадский вор смотреть онлайн
    Cкачать фильм Багдадский вор бесплатно
    Багдадский вор скачать торрент в хорошем качестве
    Багдадский вор смотреть онлайн бесплатно в хорошем качестве


    Вы не можете начинать темы
    Вы не можете отвечать на сообщения
    Вы не можете редактировать свои сообщения
    Вы не можете удалять свои сообщения
    Вы не можете голосовать в опросах
    Вы не можете прикреплять файлы к сообщениям
    Вы можете скачивать файлы