Ссылка на приватное зеркало всего за 1$. Внимание количество ограничено!!!

iTunes

iTunes

iTunes

1

iTunes

iTunes

iTunes

iTunes

iTunes

30
pack

Новость дня

ВАЖНО

!!Акция!!

Alien_RageХит недели

RePack

Resident Evil 21

ИГРА 18+

pack

RePack

jed

!!Акция!!

Alien_Rage

RePack

fifa19

RePack

Assassins Creed: Odyssey

RePack

NEED FOR SPEED™ PAYBACK

4 сезон

9 сезон

Бесстыжие 9 сезон

Все сериалы

все сериалы на PB.wtf

RePack

FAR CRY 5
  

Женщина в черном / The Woman in Black (Джеймс Уоткинс) [2012 г., ужасы, триллер, драма, BDRemux] [ лицензия ] от R.G. 20th Century Fox piratbit.org

Женщина в черном через торрент piratbit.org

Размер: 15.7 GB | Добавлен: 7 лет 9 мес. назад | Торрент скачан:139 раз
Скачать  

27-06-2012 19:38 Женщина в черном Скачать торрент  

Женщина в черном / The Woman in Black«Только не смотри на нее»
Год выпуска: 2012
Страна: Швеция, Канада, Великобритания / Cross Creek Pictures, Hammer Film Productions
Жанр: ужасы, триллер, драма
Продолжительность: 01:34:25
Перевод: Профессиональный (дублированный) Лицензия

Режиссер: Джеймс Уоткинс

В ролях: Дэниэл Рэдклифф, Кирен Хайдз, Джанет
МакТир, Дэвид Бурк, Шон Дули, Эмма Шори, Молли Хэрмон, Софи Стаки, Миша Хэндли, Джессика Рэйне

Описание: На дворе — конец девятнадцатого века, но, хотя люди пользуются автомобилями, железными дорогами, и телеграфом, человек по-прежнему бессилен перед проявлениями сверхъестественного. Молодой лондонский юрист Артур Киппс вынужден оставить своего трехлетнего сына и отправиться в командировку в уединенную северную деревушку, чтобы составить реестр документов, оставшихся от скончавшегося хозяина поместья Ил Марш. Добравшись до места, и пообщавшись с негостеприимными местными жителями, он начинает понимать, что над деревушкой нависла тень мрачной тайны. Когда же рядом со старым кладбищем ему на глаза попадается загадочная женщина, одетая в черное, это малозначительное происшествие знаменует начало череды леденящих кровь смертей в семьях обитателей деревни.


BDRemux подготовил BoxeR


Качество: BDRemux
Формат: MKV
Видео кодек: H.264
Аудио кодек: AC3
Видео: 1920 x 1080 (1.778) at 23.976 fps, 22,7 Мбит/сек
Аудио: AC-3 at 448 Кбит/сек, 6 каналов, 48,0 КГц
Общее
Уникальный идентификатор : 212548589074711235733047524539438073217 (0x9FE75E86184567DC9E64B48D38860581)
Полное имя : D:\Женщина в чёрном (R.G. 20th Century Fox).mkv
Формат : Matroska
Версия формата : Version 2
Размер файла : 15,7 Гбайт
Продолжительность : 1 ч. 35 м.
Режим общего битрейта : Переменный
Общий поток : 23,6 Мбит/сек
Дата кодирования : UTC 2012-06-27 19:08:27
Программа кодирования : mkvmerge v5.6.0 ('Kenya Kane') built on May 27 2012 16:44:04
Библиотека кодирования : libebml v1.2.3 + libmatroska v1.3.0

Видео
Идентификатор : 1
Формат : AVC
Формат/Информация : Advanced Video Codec
Профиль формата : High@L4.1
Параметр CABAC формата : Да
Параметр ReFrames формата : 2 кадра
Идентификатор кодека : V_MPEG4/ISO/AVC
Продолжительность : 1 ч. 35 м.
Вид битрейта : Переменный
Битрейт : 22,7 Мбит/сек
Ширина : 1920 пикселей
Высота : 1080 пикселей
Соотношение сторон : 16:9
Частота кадров : 23,976 кадра/сек
Цветовое пространство : YUV
Субдискретизация насыщенности : 4:2:0
Битовая глубина : 8 бит
Тип развёртки : Прогрессивная
Бит/(Пиксели*Кадры) : 0.456
Размер потока : 15,1 Гбайт (96%)
Заголовок : Denils
Язык : English
Default : Да
Forced : Да

Аудио
Идентификатор : 2
Формат : AC-3
Формат/Информация : Audio Coding 3
Расширение режима : CM (complete main)
Идентификатор кодека : A_AC3
Продолжительность : 1 ч. 35 м.
Вид битрейта : Постоянный
Битрейт : 448 Кбит/сек
Каналы : 6 каналов
Расположение каналов : Front: L C R, Side: L R, LFE
Частота : 48,0 КГц
Битовая глубина : 16 бит
Метод сжатия : С потерями
Размер потока : 305 Мбайт (2%)
Заголовок : Дубляж
Язык : Russian
Default : Да
Forced : Да
piratbit.org



Скачать Женщина в черном через торрент http://firepic.org/images/2012-05/30/h0w5t1o6pwfl.png Скачать фильм Женщина в черном через торрент бесплантно в хорошем качестве Описание: На дворе — конец девятнадцатого века, но, хотя люди пользуются автомобилями, железными дорогами, и телеграфом, человек ... 10 10 3
Info! Золотая раздача, скачанное не засчитывается.
Торрент: Зарегистрирован [2012-06-27 19:39] · скачан: 139 раз
Статус: √ проверено
Размер: 15.7 GB
Как cкачать? Как скачать Женщина в черном через торрент | qTorrent

% Раздел Тема Автор DL S | L
Фильмы 2012 [ 2.22 GB ] Женщина в черном / The Woman in Black [2012 BDRip-AVC] лицензия от R.G. 20th Century Fox {RUS}RAMBO Скачать
1 | 0

28-11-2019 20:33  

Отключить всю рекламу на сайте

27-06-2012 21:41 Женщина в черном Скачать торрент  

СпасибО Огромнейшее! piratbit.org



27-06-2012 21:50 Женщина в черном Скачать торрент  

не за что рад старатсяpiratbit.org



    Дорогой пользователь! Огромная просьба, поблагодарите релизера, оцените раздачу и оставьте свои комментарий, если Вы скачали Женщина в черном через торрент бесплатно! Внесите свою лепту в развитие PiratBit!
    Комментировать посты могут только пользователи прошедшие не сложную регистрацию
    Показать сообщения:    

    Женщина в черном через торрент
    Скачать бесплатно Женщина в черном
    Женщина в черном скачать торрент
    Женщина в черном смотреть онлайн
    Cкачать фильм Женщина в черном бесплатно
    Женщина в черном скачать торрент в хорошем качестве
    Женщина в черном смотреть онлайн бесплатно в хорошем качестве


    Вы не можете начинать темы
    Вы не можете отвечать на сообщения
    Вы не можете редактировать свои сообщения
    Вы не можете удалять свои сообщения
    Вы не можете голосовать в опросах
    Вы не можете прикреплять файлы к сообщениям
    Вы можете скачивать файлы