новый адрес
Мега распродажа FORZA HORIZON 4 ULTIMATE+ВСЕ DLC+ОНЛАЙН всего за 499р. 349 руб. (супер цена). Внимание количество ограничено!!!

iTunes

1+1

iTunes

мы

iTunes

1

iTunes

Чернобыль

iTunes

Ральф против интернета

Лицензия

ПШазам

Лицензия

Игра престолов

Лицензия

30
pack

ВАЖНО

!!Акция!!

Alien_RageХит недели

RePack

Resident Evil 21

ИГРА 18+

pack

RePack

Metro:Exodus

!!Акция!!

Alien_Rage

RePack

fifa19

RePack

Assassins Creed: Odyssey

RePack

NEED FOR SPEED™ PAYBACK

3 сезон

9 сезон

Бесстыжие 9 сезон

Все сериалы

все сериалы на PB.wtf

RePack

FAR CRY 5
Ребята, катастрофически не хватает 1900р. для оплаты серверов за Октябрь (всвязи с блокировками трафик упал в 3 раза), 1-2р., выручайте.
  

Дельфины и киты 3D / Dolphins and Whales 3D: Tribes of the Ocean (Жан-Жак Мантелло) [2008 г., Документальный, BDRip (1080p), DUB (лицензия)Вертикальная анаморфная стереопара] piratbit.org

Дельфины и киты 3D через торрент piratbit.org

Размер: 4.33 GB | Добавлен: 7 лет 4 мес. назад | Торрент скачан:641 раз
Скачать  

05-07-2012 15:46 Дельфины и киты 3D Скачать торрент  

Дельфины и киты 3D / Dolphins and Whales 3D: Tribes of the Ocean

Год выпуска: 2008
Страна: Великобритания, Багамы
Жанр: Документальный
Продолжительность: 00:42:26
Перевод: Дубляж (Лицензия)
Тип релиза: Лицензия

Режиссер: Жан-Жак Мантелло
Продюссер: Франсуа Мантелло
Сценарий: Джон Майкл Джонсон, Элизабет Др. Мантелло

Бюджет: $6 000 000
Премьера в мире: 15 февраля 2008

В ролях: Дельфины , киты и другие обитатели океана.

Описание: Этот великолепный и зрелищный фильм в трехмерном изображении, снятый на коралловых рифах Багамских островов, перенесет вас в эти удивительные места: вы узнаете много интересных фактов о диких дельфинах и китах, способных к не простому общению и взаимодействию. Фильм ярко показывает жизнь этих изящных, величественных, но все же, подвергаемых опасности морских существ.

Качество: BDRip (1080p)
Формат: MKV
Формат 3D: Half OverUnder / Вертикальная анаморфная стереопара
Порядок ракурсов: левый ракурс первый
Видео кодек: x264
Аудио кодек: AC3
Видео: AVC / 1920х1080 / 23,976 кадр/сек / 13.9 Мбит/сек
Аудио#1: Русский / AC3 / 48 KHz / 5.1 ch / 448 Kbps
General
Unique ID : 223815337391580456777872427124915974215 (0xA861441A835A14DEB0BD4820008C3047)
Complete name : J:\Фильмы\3Д\дельфины и киты.mkv
Format : Matroska
Format version : Version 2
File size : 4.33 GiB
Duration : 42mn 26s
Overall bit rate : 14.6 Mbps
Encoded date : UTC 2012-07-03 21:08:31
Writing application : mkvmerge v3.4.0 ('Rapunzel') сборка от May 15 2010 09:38:20
Writing library : libebml v0.8.0 + libmatroska v0.9.0

Video
ID : 1
Format : AVC
Format/Info : Advanced Video Codec
Format profile : High@L4.1
MultiView_Count : 2
MultiView_Layout : Both Eye
Format settings, CABAC : Yes
Format settings, ReFrames : 4 frames
Codec ID : V_MPEG4/ISO/AVC
Duration : 42mn 26s
Bit rate : 13.9 Mbps
Width : 1 920 pixels
Height : 1 080 pixels
Display aspect ratio : 16:9
Frame rate : 23.976 fps
Color space : YUV
Chroma subsampling : 4:2:0
Bit depth : 8 bits
Scan type : Progressive
Bits/(Pixel*Frame) : 0.279
Stream size : 4.12 GiB (95%)
Title : Rip by SeRoGa00
Writing library : x264 core 125 r2200 999b753
Encoding settings : cabac=1 / ref=4 / deblock=1:-1:-1 / analyse=0x3:0x133 / me=umh / subme=9 / psy=1 / psy_rd=1.00:0.15 / mixed_ref=1 / me_range=16 / chroma_me=1 / trellis=2 / 8x8dct=1 / cqm=0 / deadzone=21,11 / fast_pskip=1 / chroma_qp_offset=-3 / threads=9 / lookahead_threads=1 / sliced_threads=0 / nr=0 / decimate=1 / interlaced=0 / bluray_compat=0 / constrained_intra=0 / bframes=6 / b_pyramid=2 / b_adapt=2 / b_bias=0 / direct=3 / weightb=1 / open_gop=0 / weightp=2 / keyint=250 / keyint_min=23 / scenecut=40 / intra_refresh=0 / rc_lookahead=60 / rc=crf / mbtree=1 / crf=18.0 / qcomp=0.60 / qpmin=0 / qpmax=69 / qpstep=4 / ip_ratio=1.40 / aq=1:1.00
Language : English
Default : Yes
Forced : No

Audio
ID : 2
Format : AC-3
Format/Info : Audio Coding 3
Mode extension : CM (complete main)
Format settings, Endianness : Big
Codec ID : A_AC3
Duration : 42mn 26s
Bit rate mode : Constant
Bit rate : 448 Kbps
Channel(s) : 6 channels
Channel positions : Front: L C R, Side: L R, LFE
Sampling rate : 48.0 KHz
Bit depth : 16 bits
Compression mode : Lossy
Stream size : 136 MiB (3%)
Language : Russian
Default : No
Forced : No

Forced : No

piratbit.org



Скачать Дельфины и киты 3D через торрент http://i34.fastpic.ru/big/2012/0520/9a/8675afed0181993c5f51669a572baf9a.jpg Скачать фильм Дельфины и киты 3D через торрент бесплантно в хорошем качестве Описание: Этот великолепный и зрелищный фильм в трехмерном изображении, снятый на коралловых рифах Багамских островов, перенесет вас в эти ... 9.1 10 7
Info! Золотая раздача, скачанное не засчитывается.
Торрент: Зарегистрирован [2012-07-05 15:46] · скачан: 641 раз
Статус: √ проверено
Размер: 4.33 GB
Как cкачать? Как скачать Дельфины и киты 3D через торрент | qTorrent


>> Регистрируемся здесь <<






Отзывы и комментарии о схеме читаем и пишем здесь: ---> Отзывы и комментарии о схеме

Новые благодарочки в телеграм довольных пользователей:
скриншот   скриншот   скриншот   скриншот   скриншот
    Дорогой пользователь! Огромная просьба, поблагодарите релизера, оцените раздачу и оставьте свои комментарий, если Вы скачали Дельфины и киты 3D через торрент бесплатно! Внесите свою лепту в развитие PiratBit!
    Комментировать посты могут только пользователи прошедшие не сложную регистрацию
    Показать сообщения:    

    Дельфины и киты 3D через торрент
    Скачать бесплатно Дельфины и киты 3D
    Дельфины и киты 3D скачать торрент
    Дельфины и киты 3D смотреть онлайн
    Cкачать фильм Дельфины и киты 3D бесплатно
    Дельфины и киты 3D скачать торрент в хорошем качестве
    Дельфины и киты 3D смотреть онлайн бесплатно в хорошем качестве


    Вы не можете начинать темы
    Вы не можете отвечать на сообщения
    Вы не можете редактировать свои сообщения
    Вы не можете удалять свои сообщения
    Вы не можете голосовать в опросах
    Вы не можете прикреплять файлы к сообщениям
    Вы можете скачивать файлы