Ссылка на приватное зеркало всего за 1$. Внимание количество ограничено!!!

iTunes

iTunes

iTunes

1

iTunes

iTunes

iTunes

iTunes

iTunes

30
pack

Новость дня

ВАЖНО

!!Акция!!

Alien_RageХит недели

RePack

Resident Evil 21

ИГРА 18+

pack

RePack

jed

!!Акция!!

Alien_Rage

RePack

fifa19

RePack

Assassins Creed: Odyssey

RePack

NEED FOR SPEED™ PAYBACK

4 сезон

9 сезон

Бесстыжие 9 сезон

Все сериалы

все сериалы на PB.wtf

RePack

FAR CRY 5
  

Любовь живет три года / L'amour dure trois ans (Фредерик Бегбедер / Frederic Beigbeder) [2011 г., комедия, BD-Remux 1080p] DUB |MVO Sub Rus + Original French| piratbit.org

Любовь живет три года через торрент piratbit.org

Размер: 21.82 GB | Добавлен: 7 лет 8 мес. назад | Торрент скачан:26 раз
Скачать  

06-07-2012 15:57 Любовь живет три года Скачать торрент  

Любовь живет три годаL'amour dure trois ans«Любовь в XXI веке - это СМС без ответа»


Год выпуска: 2011
Страна: Франция, Бельгия
Жанр: комедия
Продолжительность: 01:37:50
Перевод: Профессиональный (дублированный) - Лицензия R5
Перевод 2: Профессиональный (многоголосый закадровый) - Лицензия R5
Cубтитры: Rus
Оригинальная аудиодорожка: French
Режиссер: Фредерик Бегбедер / Frederic Beigbeder
В ролях: Гаспар Пруст, Луиз Бургуэн, Джои Старр, Джонатан Ламберт, Фредерик Бель, Николас Бедос, Элиза Седнауи, Бернар Менез, Анни Дюпре, Тома Жуанне
Описание: Главный герой — журналист Марк Марронье, пишущий светскую хронику. Он уверен, что любовь живёт три года: сначала люди страстно любят друг друга, потом нежно и по-дружески, а потом им становится скучно. Причины таких взглядов кроются в том, что сам Марк никогда не любил больше трёх лет…
СЭМПЛ
Релиз-группа -
Тип релиза: Blu-ray Remux
Контейнер: MKV
Видео кодек: AVC
Аудио кодек: AC3
Видео: MPEG-4 AVC, 27539 Kbps, 1920*1080 (16:9), 24 fps
Аудио: Rus, 384 kbps, 48.0 KHz, 16 bits, 6 ch, AC-3 |Профессиональный (дублированный) - Лицензия R5|
Аудио 2: Rus, 384 kbps, 48.0 KHz, 16 bits, 6 ch, AC-3 |Профессиональный (многоголосый закадровый) - Лицензия R5|
Аудио 3: French, 3618 kbps, 48 kHz, 24-bit, 6 ch, DTS-HD Master Audio (DTS Core: 5.1 / 48 kHz / 1509 kbps / 24-bit)

General
Unique ID : 232911972222119527024854945967178057555 (0xAF3936D3E73A98C48F9E27C8D78D0753)
Complete name : D:\Новая папка\Ljubov.zhivjot.tri.goda.mkv
Format : Matroska
File size : 21.8 GiB
Duration : 1h 37mn
Overall bit rate : 31.9 Mbps
Encoded date : UTC 2012-07-03 16:49:27
Writing application : mkvmerge v5.6.0 ('Kenya Kane') built on May 27 2012 16:44:04
Writing library : libebml v1.2.3 + libmatroska v1.3.0
Video
ID : 1
Format : AVC
Format/Info : Advanced Video Codec
Format profile : High@L4.1
Format settings, CABAC : Yes
Format settings, ReFrames : 4 frames
Codec ID : V_MPEG4/ISO/AVC
Duration : 1h 37mn
Bit rate mode : Variable
Bit rate : 29.0 Mbps
Maximum bit rate : 35.0 Mbps
Width : 1 920 pixels
Height : 1 080 pixels
Display aspect ratio : 16:9
Frame rate : 24.000 fps
Standard : NTSC
Color space : YUV
Chroma subsampling : 4:2:0
Bit depth : 8 bits
Scan type : Progressive
Bits/(Pixel*Frame) : 0.582
Stream size : 19.8 GiB (91%)
Language : French
Color primaries : BT.709-5, BT.1361, IEC 61966-2-4, SMPTE RP177
Transfer characteristics : BT.709-5, BT.1361
Matrix coefficients : BT.709-5, BT.1361, IEC 61966-2-4 709, SMPTE RP177
Audio #1
ID : 2
Format : AC-3
Format/Info : Audio Coding 3
Mode extension : CM (complete main)
Codec ID : A_AC3
Duration : 1h 37mn
Bit rate mode : Constant
Bit rate : 384 Kbps
Channel(s) : 6 channels
Channel positions : Front: L C R, Side: L R, LFE
Sampling rate : 48.0 KHz
Bit depth : 16 bits
Compression mode : Lossy
Stream size : 269 MiB (1%)
Title : DUB
Language : Russian
Audio #2
ID : 3
Format : AC-3
Format/Info : Audio Coding 3
Mode extension : CM (complete main)
Codec ID : A_AC3
Duration : 1h 37mn
Bit rate mode : Constant
Bit rate : 384 Kbps
Channel(s) : 6 channels
Channel positions : Front: L C R, Side: L R, LFE
Sampling rate : 48.0 KHz
Bit depth : 16 bits
Compression mode : Lossy
Stream size : 269 MiB (1%)
Title : MVO
Language : Russian
Audio #3
ID : 4
Format : DTS
Format/Info : Digital Theater Systems
Format profile : MA / Core
Codec ID : A_DTS
Duration : 1h 37mn
Bit rate mode : Variable
Bit б: 1 561 Kbps / 1 510 Kbps
Channel(s) : 6 channels
Channel positions : Front: L C R, Side: L R, LFE
Sampling rate : 48.0 KHz
Bit depth : 24 bits
Compression mode : Lossless / Lossy
Language : French
Text
ID : 5
Format : UTF-8
Codec ID : S_TEXT/UTF8
Codec ID/Info : UTF-8 Plain Text
Language : Russian
Menu
00:00:00.000 : en:
00:05:00.000 : en:
00:10:00.000 : en:
00:15:00.000 : en:
00:20:00.000 : en:
00:25:00.000 : en:
00:30:00.000 : en:
00:35:00.000 : en:
00:40:00.000 : en:
00:45:00.000 : en:
00:50:00.000 : en:
00:55:00.000 : en:
01:00:00.000 : en:
01:05:00.000 : en:
01:10:00.000 : en:
01:15:00.000 : en:
01:20:00.000 : en:
01:25:00.000 : en:
01:30:00.000 : en:
01:35:00.000 : en:
piratbit.org



Скачать Любовь живет три года через торрент http://i42.fastpic.ru/big/2012/0704/07/3faa9916c71a38b127779fee52663c07.jpg Скачать фильм Любовь живет три года через торрент бесплантно в хорошем качестве Описание: Главный герой — журналист Марк Марронье, пишущий светскую хронику. Он уверен, что любовь живёт три года: сначала люди страстно ... 3.7 10 3
Info! Золотая раздача, скачанное не засчитывается.
Торрент: Зарегистрирован [2012-07-06 15:57] · скачан: 26 раз
Статус: √ проверено
Размер: 21.82 GB
Как cкачать? Как скачать Любовь живет три года через торрент | qTorrent

28-11-2019 20:33  

Отключить всю рекламу на сайте

    Дорогой пользователь! Огромная просьба, поблагодарите релизера, оцените раздачу и оставьте свои комментарий, если Вы скачали Любовь живет три года через торрент бесплатно! Внесите свою лепту в развитие PiratBit!
    Комментировать посты могут только пользователи прошедшие не сложную регистрацию
    Показать сообщения:    

    Любовь живет три года через торрент
    Скачать бесплатно Любовь живет три года
    Любовь живет три года скачать торрент
    Любовь живет три года смотреть онлайн
    Cкачать фильм Любовь живет три года бесплатно
    Любовь живет три года скачать торрент в хорошем качестве
    Любовь живет три года смотреть онлайн бесплатно в хорошем качестве


    Вы не можете начинать темы
    Вы не можете отвечать на сообщения
    Вы не можете редактировать свои сообщения
    Вы не можете удалять свои сообщения
    Вы не можете голосовать в опросах
    Вы не можете прикреплять файлы к сообщениям
    Вы можете скачивать файлы