2 сезон

iTunes

MVO

1

2 сезон

iTunes

iTunes

1 сезон

RePack

30

Новинка

ВАЖНО

ИГРА 18+

pack

RePack

MK11
pack

Легкие деньги

RePack

jed

RePack

fifa19

RePack

RDR2

RePack

NEED FOR SPEED™ PAYBACK

4 сезон

9 сезон

Бесстыжие 9 сезон

Все сериалы

все сериалы на PB.wtf

RePack

FAR CRY 5

Anonymous, добрый день, мы не успеваем собрать деньги на оплату серверов за декабрь и январь, помогите нам пожалуйста в это трудное время. В качестве благодарности мы отключим Вам всю рекламу на сайте (укажите свой ник в строку Ваше имя)!

×
  
Magnet ссылка

Тамагочи (Андрей Бородин, Салтанат Мурзалинова-Яковлева) [2012 г., Комедия, Фантастика, Драма, WEB-DLRip] piratbit.org

Скачать  

07-07-2012 21:04 Тамагочи Скачать торрент  

Тамагочи

Год выпуска: 2012
Страна: Казахстан
Жанр: Комедия, Фантастика, Драма
Продолжительность: 01:06:50

Перевод: Не требуется (Оригинал)

Режиссер: Андрей Бородин, Салтанат Мурзалинова-Яковлева

В ролях: Юлия Тейфель, Роман Романов, Тимур Ливазов, Екатерина Гамидова, Альжан Архабаев, Макпал Исакова, Максат Акпаров, Сергей Тейфель

Описание: Она - чайлд-фри. Настроена на саморазвитие и карьеру, ей нравится познавать мир, и в ее планах совершенно нет семьи и детей. Она не заводит даже животных, в ее квартире нет комнатных цветов. Ей нравится жить одной, ее пространство целиком и полностью подстроено под нее. Она - тренер в фитнесс-центре. Он - ее партнер по танцам. Планирует свое танцевальное шоу, и уже почти готов к созданию семьи. Впереди у Ники и Дэна - победа на Чемпионате по латиноамериканским танцам. И, конечно, только блеск, успех и... И еще один Он. Тамагочи. История начинается с того, что в квартире Ники появляется тамагочи. Сначала это электронная игрушка, которую надо поить и кормить по часам. Да что там ему просто нужно внимание! Но однажды Ника возвращается домой и застает незнакомца, который утверждает что он оживший Тамагочи. Это фильм о чувствах. О том, за что мы ценим людей, и кого мы хотим видеть рядом. Это фильм о том, как перестать быть электронной игрушкой в отношениях, и стать свободным для любви.

Качество: WEB-DLRip
Формат: AVI
Видео кодек: XviD
Аудио кодек: AC3
Видео: 1231 kb/s, 720x400, 23,976 fps
Аудио: Russian: 224 kb/s (2 ch), 48 kHz





Формат : AVI
Формат/Информация : Audio Video Interleave
Размер файла : 700 Мбайт
Продолжительность : 1 ч. 6 м.
Общий поток : 1464 Кбит/сек
Программа кодирования : VirtualDubMod 1.5.10.2 (build 2540/release)
Библиотека кодирования : VirtualDubMod build 2540/release

Видео
Идентификатор : 0
Формат : MPEG-4 Visual
Профиль формата : Advanced Simple@L5
Параметр BVOP формата : 2
Параметр QPel формата : Нет
Параметр GMC формата : Без точки перехода
Параметр матрицы формата : Default (MPEG)
Идентификатор кодека : XVID
Идентификатор кодека/Подсказка : XviD
Продолжительность : 1 ч. 6 м.
Битрейт : 1231 Кбит/сек
Ширина : 720 пикселей
Высота : 400 пикселей
Соотношение сторон : 16:9
Частота кадров : 23,976 кадра/сек
Цветовое пространство : YUV
Субдискретизация насыщенности : 4:2:0
Битовая глубина : 8 бит
Тип развёртки : Прогрессивная
Метод сжатия : С потерями
Бит/(Пиксели*Кадры) : 0.178
Размер потока : 588 Мбайт (84%)
Библиотека кодирования : XviD 1.2.1 (UTC 2008-12-04)

Аудио
Идентификатор : 1
Формат : AC-3
Формат/Информация : Audio Coding 3
Расширение режима : CM (complete main)
Идентификатор кодека : 2000
Продолжительность : 1 ч. 6 м.
Вид битрейта : Постоянный
Битрейт : 224 Кбит/сек
Каналы : 2 канала
Расположение каналов : Front: L R
Частота : 48,0 КГц
Битовая глубина : 16 бит
Метод сжатия : С потерями
Размер потока : 107 Мбайт (15%)
Выравнивание : Разделение по промежуткам
Продолжительность промежутка : 42 мс. (1,00 видеокадр)
Время предзагрузки промежутка : 500 мс.

piratbit.org





Последний раз редактировалось: makarevich (2012-07-08 05:43), всего редактировалось 1 раз

28-11-2019 20:33  

Отключить всю рекламу на сайте

07-07-2012 22:20 Тамагочи Скачать торрент  

шо воно такэ,даже на кинопоиске не обнаруживается?!piratbit.org



08-07-2012 00:09 Тамагочи Скачать торрент  

очень емкое описание фильма)) сразу ясно, что убийца - садовник)))))piratbit.org



08-07-2012 05:16 Тамагочи Скачать торрент  

по трейлеру хреньpiratbit.org



08-07-2012 06:17 Тамагочи Скачать торрент  

Комедия, Фантастика, Драма
сильно конечно,даже слов нет :good2: :good2: :good2:piratbit.org



08-07-2012 06:30 Тамагочи Скачать торрент  

Обычно такое снимают в Японииpiratbit.org



08-07-2012 07:09 Тамагочи Скачать торрент  

не качайте парни, 5 минут мне хватилоpiratbit.org



08-07-2012 09:14 Тамагочи Скачать торрент  

wwszpua писал(а):

шо воно такэ,даже на кинопоиске не обнаруживается?!

Немного русского прибавь))))piratbit.org



    Дорогой пользователь! Огромная просьба, поблагодарите релизера, оцените раздачу и оставьте свои комментарий, если Вы скачали Тамагочи через торрент бесплатно! Внесите свою лепту в развитие PiratBit!
    Комментировать посты могут только пользователи прошедшие не сложную регистрацию
    Показать сообщения:    

    Тамагочи через торрент
    Скачать бесплатно Тамагочи
    Тамагочи скачать торрент
    Тамагочи смотреть онлайн
    Cкачать фильм Тамагочи бесплатно
    Тамагочи скачать торрент в хорошем качестве
    Тамагочи смотреть онлайн бесплатно в хорошем качестве


    Вы не можете начинать темы
    Вы не можете отвечать на сообщения
    Вы не можете редактировать свои сообщения
    Вы не можете удалять свои сообщения
    Вы не можете голосовать в опросах
    Вы не можете прикреплять файлы к сообщениям
    Вы можете скачивать файлы