Ссылка на приватное зеркало всего за 1$. Внимание количество ограничено!!!

iTunes

iTunes

iTunes

1

iTunes

iTunes

iTunes

iTunes

iTunes

30
pack

Новость дня

ВАЖНО

!!Акция!!

Alien_RageХит недели

RePack

Resident Evil 21

ИГРА 18+

pack

RePack

jed

!!Акция!!

Alien_Rage

RePack

fifa19

RePack

Assassins Creed: Odyssey

RePack

NEED FOR SPEED™ PAYBACK

4 сезон

9 сезон

Бесстыжие 9 сезон

Все сериалы

все сериалы на PB.wtf

RePack

FAR CRY 5
  

Наездник рассвета / Dawn Rider (Терри Майлз) [2012 г., вестерн, Любительский (двухголосый)] piratbit.org

Наездник рассвета через торрент piratbit.org

Размер: 15.75 GB | Добавлен: 7 лет 8 мес. назад | Торрент скачан:31 раз
Скачать  

11-07-2012 13:54 Наездник рассвета Скачать торрент  

Наездник рассвета / Dawn Rider

Год выпуска: 2012
Страна: Канада
Жанр: вестерн
Продолжительность: 01:33:41
Перевод: Любительский (двухголосый)

Режиссер: Терри Майлз

http://www.imdb.com/title/tt2014202/
http://www.kinopoisk.ru/level/1/film/602726/

В ролях: Кристиан Слэйтер, Джилл Хеннесси, Дональд Сазерленд, Локлин Манро, Адриан Хью, Дж. Майкл Грэй, Клод Дюамель, Джордж Каньон, Мэтт Беллефло, Кеннет В. Янко

Описание: Джон Мэйсон мстит за убийство своего отца, он вернулся домой в Вайоминг, чтобы исправить семейные проблемы.

Формат: MKV
Видео кодек: H.26x
Аудио кодек: AC3
Видео: 20.1 Mбит/с, 1920x1080, 23.976 кадр/с, 0.403 bit/pixel
Аудио#1: Русский (AC3, 6 ch, 640 Кбит/с, 48.0 KHz)
Аудио#2: Английский (DTS-HD MA, 6 ch, 3528 Кбит/с, 48.0 KHz)
Субтитры: Английские, русские, румынские
General
Unique ID : 227076771029116032205037645750848519119 (0xAAD56532610BCEDB929EC26F41B4FBCF)
Complete name : C:Naezdnik.rassveta.2012.MPEG.4.AVC.BluRay.Remux.(1080p).mkv
Format : Matroska
Format version : Version 2
File size : 15.8 GiB
Duration : 1h 34mn
Overall bit rate mode : Variable
Overall bit rate : 23.9 Mbps
Movie name : Denils
Encoded date : UTC 2012-07-11 05:38:12
Writing application : mkvmerge v4.0.0 ('The Stars were mine') сборка от Jun 6 2010 16:18:42
Writing library : libebml v1.0.0 + libmatroska v1.0.0

Video
ID : 1
Format : VC-1
Format profile : AP@L3
Codec ID : WVC1
Codec ID/Hint : Microsoft
Duration : 1h 34mn
Bit rate : 20.1 Mbps
Width : 1 920 pixels
Height : 1 080 pixels
Display aspect ratio : 16:9
Frame rate : 23.976 fps
Chroma subsampling : 4:2:0
Bit depth : 8 bits
Scan type : Progressive
Compression mode : Lossy
Bits/(Pixel*Frame) : 0.403
Stream size : 13.2 GiB (84%)
Language : English

Audio #1
ID : 2
Format : AC-3
Format/Info : Audio Coding 3
Mode extension : CM (complete main)
Codec ID : A_AC3
Duration : 1h 34mn
Bit rate mode : Constant
Bit rate : 640 Kbps
Channel(s) : 6 channels
Channel positions : Front: L C R, Side: L R, LFE
Sampling rate : 48.0 KHz
Bit depth : 16 bits
Compression mode : Lossy
Stream size : 431 MiB (3%)
Language : Russian

Audio #2
ID : 3
Format : DTS
Format/Info : Digital Theater Systems
Format profile : MA / Core
Codec ID : A_DTS
Duration : 1h 34mn
Bit rate mode : Variable
Bit rate : 2 776 Kbps / 1 510 Kbps
Channel(s) : 6 channels
Channel positions : Front: L C R, Side: L R, LFE
Sampling rate : 48.0 KHz
Bit depth : 24 bits
Compression mode : Lossless / Lossy
Delay relative to video : 42ms
Title : Lossless
Language : English

Text #1
ID : 4
Format : UTF-8
Codec ID : S_TEXT/UTF8
Codec ID/Info : UTF-8 Plain Text
Language : Russian

Text #2
ID : 5
Format : UTF-8
Codec ID : S_TEXT/UTF8
Codec ID/Info : UTF-8 Plain Text
Language : English

Text #3
ID : 6
Format : UTF-8
Codec ID : S_TEXT/UTF8
Codec ID/Info : UTF-8 Plain Text
Language : Romanian

Menu
00:00:00.000 : en:Chapter 00
00:12:27.371 : en:Chapter 01
00:23:00.921 : en:Chapter 02
00:35:12.443 : en:Chapter 03
00:50:37.993 : en:Chapter 04
01:06:59.056 : en:Chapter 05
01:21:43.773 : en:Chapter 06
01:31:40.703 : en:Chapter 07

piratbit.org



Скачать Наездник рассвета через торрент http://lostpic.net/images/e9905ffa017d02b426376988b7cdbd2a.png Скачать фильм Наездник рассвета через торрент бесплантно в хорошем качестве Описание: Джон Мэйсон мстит за убийство своего отца, он вернулся домой в Вайоминг, чтобы исправить семейные проблемы.Формат: MKVВидео ... 5 10 2
Info! Золотая раздача, скачанное не засчитывается.
Торрент: Зарегистрирован [2012-07-11 13:54] · скачан: 31 раз
Статус: √ проверено
Размер: 15.75 GB
Как cкачать? Как скачать Наездник рассвета через торрент | qTorrent

28-11-2019 20:33  

Отключить всю рекламу на сайте

    Дорогой пользователь! Огромная просьба, поблагодарите релизера, оцените раздачу и оставьте свои комментарий, если Вы скачали Наездник рассвета через торрент бесплатно! Внесите свою лепту в развитие PiratBit!
    Комментировать посты могут только пользователи прошедшие не сложную регистрацию
    Показать сообщения:    

    Наездник рассвета через торрент
    Скачать бесплатно Наездник рассвета
    Наездник рассвета скачать торрент
    Наездник рассвета смотреть онлайн
    Cкачать фильм Наездник рассвета бесплатно
    Наездник рассвета скачать торрент в хорошем качестве
    Наездник рассвета смотреть онлайн бесплатно в хорошем качестве


    Вы не можете начинать темы
    Вы не можете отвечать на сообщения
    Вы не можете редактировать свои сообщения
    Вы не можете удалять свои сообщения
    Вы не можете голосовать в опросах
    Вы не можете прикреплять файлы к сообщениям
    Вы можете скачивать файлы