Ссылка на приватное зеркало нашего сайта всего за 1$. Внимание количество ограничено!!!

2 сезон

iTunes

iTunes

1

iTunes

iTunes

iTunes

WEBRip

iTunes

30
pack

Вам бонус

ВАЖНО

!!Акция!!

Alien_RageХит недели

RePack

Horizon Zero Dawn

ИГРА 18+

pack

RePack

jed

!!Акция!!

Alien_Rage

RePack

fifa19

RePack

Assassins Creed: Odyssey

RePack

NEED FOR SPEED™ PAYBACK

4 сезон

9 сезон

Бесстыжие 9 сезон

Все сериалы

все сериалы на PB.wtf

RePack

FAR CRY 5
  

Паранойя / Disturbia (Ди Джей Карузо) [2007 г., триллер, драма, детектив, HDRip, DUB (лицензия)] piratbit.org

Паранойя через торрент piratbit.org

Размер: 742 MB | Добавлен: 8 лет 2 мес. назад | Торрент скачан:56 раз
Скачать  

15-07-2012 09:58 Паранойя Скачать торрент  

Паранойя / Disturbia

Год выпуска: 2007
Страна: США
Жанр: триллер, драма, детектив
Продолжительность: 01:44:37
Перевод: Дубляж (Лицензия)

Режиссер: Ди Джей Карузо
Продюссер: Джеки Маркус, Джо Медьяк, Кваме Паркер
Сценарий: Карл Эллсуорт, Кристофер Б. Лэндон

Бюджет: $20 000 000
Премьера в мире: 4 апреля 2007

PG-13 детям до 13 лет просмотр не желателен


В ролях: Шайа ЛаБаф, Сара Ремер, Кэрри-Энн Мосс, Дэвид Морс, Аарон Йу, Хосе Пабло Кантилльо, Мэтт Крэвен, Виола Дэвис, Брэндон Карузо, Лучиано Раузо

Описание: «Каждый маньяк - это чей-то сосед»

До автокатастрофы, в которой погиб его отец, жизнь Кейла и его семьи была пригородным раем: счастливая семья, живущая в прекрасном двухэтажном доме на лоне природы. Однако после гибели отца жизнь изменилась. Да еще когда один из школьных учителей Кейла позволит себе бестактную шутку по поводу отца, Кейл ответит ему так, что окажется в суде.

Его приговаривают к домашнему аресту: он должен носить на ноге браслет, который сигнализирует полиции, если он отойдет от дома дальше, чем на тридцать метров. Теперь он сходит с ума в собственном доме, пока его мама пытается свести концы с концами, работая почти круглосуточно.

Окна его дома становятся его миром. Он не хочет разбираться со своими чувствами, потому что это для него слишком болезненно. Так он начинает смотреть по сторонам, изучать боль и трагедии других людей, формирование и распад их взаимоотношений. И в процессе этого он находит человека, которого он считает убийцей.

Качество: HDRip
Формат: AVI
Видео кодек: XviD
Аудио кодек: MPEG Audio
Видео: 672x376 (1.79:1), 23.976 fps, XviD build 47 ~854 kbps avg, 0.14 bit/pixel
Аудио#1: 48 kHz, MPEG Layer 3, 2 ch, ~128.00 kbps avg







General
Complete name : D:\Фильмы\Ост\Paranoya_dub.avi
Format : AVI
Format/Info : Audio Video Interleave
File size : 742 MiB
Duration : 1h 44mn
Overall bit rate : 992 Kbps
Writing application : VirtualDubMod 1.5.10.2 (build 2540/release)
Writing library : VirtualDubMod build 2540/release

Video
ID : 0
Format : MPEG-4 Visual
Format profile : Advanced Simple@L5
Format settings, BVOP : 1
Format settings, QPel : No
Format settings, GMC : No warppoints
Format settings, Matrix : Default (MPEG)
Codec ID : XVID
Codec ID/Hint : XviD
Duration : 1h 44mn
Bit rate : 855 Kbps
Width : 672 pixels
Height : 376 pixels
Display aspect ratio : 16:9
Frame rate : 23.976 fps
Color space : YUV
Chroma subsampling : 4:2:0
Bit depth : 8 bits
Scan type : Progressive
Compression mode : Lossy
Bits/(Pixel*Frame) : 0.141
Stream size : 640 MiB (86%)
Writing library : XviD 1.2.0.dev47 (UTC 2006-11-01)

Audio
ID : 1
Format : MPEG Audio
Format version : Version 1
Format profile : Layer 3
Codec ID : 55
Codec ID/Hint : MP3
Duration : 1h 44mn
Bit rate mode : Constant
Bit rate : 128 Kbps
Channel(s) : 2 channels
Sampling rate : 48.0 KHz
Compression mode : Lossy
Stream size : 95.8 MiB (13%)
Alignment : Aligned on interleaves
Interleave, duration : 42 ms (1.00 video frame)
Interleave, preload duration : 504 ms
Writing library : LAME3.97
Encoding settings : -m s -V 4 -q 2 -lowpass 17 -b 128

piratbit.org



Скачать Паранойя через торрент http://pic.kartinco.top/images/1/la5t5d87zs.jpg Скачать фильм Паранойя через торрент бесплантно в хорошем качестве Описание: «Каждый маньяк - это чей-то сосед»До автокатастрофы, в которой погиб его отец, жизнь Кейла и его семьи была пригородным раем: ... 10 10 2
Info! Золотая раздача, скачанное не засчитывается.
Торрент: Зарегистрирован [2012-07-15 09:58] · скачан: 56 раз
Статус: √ проверено
Размер: 742 MB
Как cкачать? Как скачать Паранойя через торрент | qTorrent

% Раздел Тема Автор DL S | L
Фильмы [HD 720p, 1080p] (Хороший звук DUB, MVO) [ 14.98 GB ] Паранойя / Disturbia [2007 BDRip 1080p by msltel] DUB MVO AVO msltel Скачать
1 | 0
Фильмы [HD 720p, 1080p] (Хороший звук DUB, MVO) [ 5.81 GB ] Паранойя / Disturbia [2007 BDRip 720p by msltel] DUB MVO AVO msltel Скачать
1 | 0
Фильмы 2006-2008 [ 3.37 GB ] Паранойя / Disturbia [2007 BDRip AVC by msltel] DUB MVO AVO msltel Скачать
1 | 0
Фильмы 2006-2008 [ 1.37 GB ] Паранойя / Disturbia [2007 DVDRip лицензия] Mladenec Скачать
1 | 2
Фильмы [HD 720p, 1080p] (Хороший звук DUB, MVO) [ 9.3 GB ] Паранойя / Disturbia [2007 BDRip 1080р] smaster Скачать
1 | 0
Фильмы 2006-2008 [ 2.79 GB ] Паранойя / Disturbia [2007 BDRip DUB многоголосый одноголосый] / Hi10P jb_alex Скачать
1 | 0
Фильмы [HD 720p, 1080p] (Хороший звук DUB, MVO) [ 6.4 GB ] Паранойя / Disturbia [2007 BDRip 720p] diletant Скачать
1 | 0

28-11-2019 20:33  

Отключить всю рекламу на сайте

    Дорогой пользователь! Огромная просьба, поблагодарите релизера, оцените раздачу и оставьте свои комментарий, если Вы скачали Паранойя через торрент бесплатно! Внесите свою лепту в развитие PiratBit!
    Комментировать посты могут только пользователи прошедшие не сложную регистрацию
    Показать сообщения:    

    Паранойя через торрент
    Скачать бесплатно Паранойя
    Паранойя скачать торрент
    Паранойя смотреть онлайн
    Cкачать фильм Паранойя бесплатно
    Паранойя скачать торрент в хорошем качестве
    Паранойя смотреть онлайн бесплатно в хорошем качестве


    Вы не можете начинать темы
    Вы не можете отвечать на сообщения
    Вы не можете редактировать свои сообщения
    Вы не можете удалять свои сообщения
    Вы не можете голосовать в опросах
    Вы не можете прикреплять файлы к сообщениям
    Вы можете скачивать файлы