1 сезон

iTunes

iTunes

1

Line

MVO

iTunes

13

1 сезон

RePack

30

Deluxe

pack

Лицензия

ВАЖНО

ИГРА 18+

pack

RePack

MK11

RePack

jed

RePack

fifa19

RePack

RDR2

RePack

NEED FOR SPEED™ PAYBACK

4 сезон

9 сезон

Бесстыжие 9 сезон

Все сериалы

все сериалы на PB.wtf

RePack

FAR CRY 5

Anonymous, доброе утро, мы катастрофически не успеваем собрать деньги на оплату серверов, помогите нам пожалуйста 5,10,15р., для нас важна любая помощь . В качестве благодарности мы отключим Вам всю рекламу на сайте (укажите свой ник в строку Ваше имя)!

×
  
Magnet ссылка

Эффект бабочки / The Butterfly Effect (Эрик Бресс, Дж. Макки Грубер) [2004 г., фантастика, триллер, BDRip, DUB (лицензия)] piratbit.org

Эффект бабочки через торрент piratbit.org

Размер: 743 MB | Добавлен: 9 лет назад | Торрент скачан:33 раза
Скачать  

15-07-2012 11:42 Эффект бабочки Скачать торрент  

Эффект бабочки / The Butterfly Effect

Год выпуска: 2004
Страна: США, Канада
Жанр: фантастика, триллер
Продолжительность: 01:53:43
Перевод: Дубляж (Лицензия)

Режиссер: Эрик Бресс, Дж. Макки Грубер
Продюссер: Крис Бендер, Энтони Рулен, Дж.С. Спинк
Сценарий: Дж. Макки Грубер, Эрик Бресс

Бюджет: $13 000 000
Премьера в мире: 22 января 2004

R лицам до 17 лет обязательно присутствие взрослого


В ролях: Эштон Катчер, Эми Смарт, Мелора Уолтерс, Элден Хенсон, Уильям Ли Скотт, Джон Патрик Амедори, Ирен Горовая, Кевин Шмидт, Джесси Джеймс, Логан Лерман

Описание: «Изменишь одно, изменится все»

Мальчик Эван перенял от своего отца-психопата, ныне запертого в доме для умалишённых, странную болезнь — он не помнит некоторых эпизодов своей жизни, причем в эти моменты происходили довольно странные, а то и ужасные, события. Возмужав и поступив в колледж, Эван делает удивительное открытие. Читая дневники, которые он писал в детстве по совету врача, Эван может возвращаться в детство и своими действиями изменять будущее.

Качество: BDRip
Формат: AVI
Видео кодек: XviD
Аудио кодек: MPEG Audio
Видео: 624x336 (1.86:1), 23.976 fps, XviD build 63 ~776 kbps avg, 0.15 bit/pixel
Аудио#1: 48 kHz, MPEG Layer 3, 2 ch, ~128.00 kbps avg








General
Complete name : D:\Фильмы\Ост\The.Butterfly.Effect.2004.BDRip.Dub.All.Films.avi
Format : AVI
Format/Info : Audio Video Interleave
File size : 743 MiB
Duration : 1h 53mn
Overall bit rate : 914 Kbps
Movie name : The.Butterfly.Effect.2004.BDRip.Dub.744.All.Films
Director : DIABLO93
Genre : Thriller
Writing application : VirtualDubMod 1.5.10.3 | www.virtualdub-fr.org || (build 2550/release)
Original source form/Name : Movie
Copyright : Rutracker.org (All Films)

Video
ID : 0
Format : MPEG-4 Visual
Format profile : Advanced Simple@L5
Format settings, BVOP : 2
Format settings, QPel : No
Format settings, GMC : No warppoints
Format settings, Matrix : Custom
Codec ID : XVID
Codec ID/Hint : XviD
Duration : 1h 53mn
Bit rate : 777 Kbps
Width : 624 pixels
Height : 336 pixels
Display aspect ratio : 1.857
Frame rate : 23.976 fps
Color space : YUV
Chroma subsampling : 4:2:0
Bit depth : 8 bits
Scan type : Progressive
Compression mode : Lossy
Bits/(Pixel*Frame) : 0.155
Stream size : 632 MiB (85%)
Writing library : XviD 63

Audio
ID : 1
Format : MPEG Audio
Format version : Version 1
Format profile : Layer 3
Codec ID : 55
Codec ID/Hint : MP3
Duration : 1h 53mn
Bit rate mode : Constant
Bit rate : 128 Kbps
Channel(s) : 2 channels
Sampling rate : 48.0 KHz
Compression mode : Lossy
Stream size : 104 MiB (14%)
Alignment : Aligned on interleaves
Interleave, duration : 42 ms (1.00 video frame)
Interleave, preload duration : 504 ms
Writing library : LAME3.98r
Encoding settings : -m s -V 4 -q 2 -lowpass 17 -b 128

piratbit.org



Скачать Эффект бабочки через торрент https://pic1.kartinco.top/images/111/ddiyhguibs.jpg Скачать фильм Эффект бабочки через торрент бесплантно в хорошем качестве Описание: «Изменишь одно, изменится все»Мальчик Эван перенял от своего отца-психопата, ныне запертого в доме для умалишённых, странную ... 10 10 2
Info! Золотая раздача, скачанное не засчитывается.
Торрент: Зарегистрирован [2012-07-15 11:42] · скачан: 33 раз
Статус: √ проверено
Размер: 743 MB
Как cкачать? Как скачать Эффект бабочки через торрент | UTorrent

% Раздел Тема Автор DL S | L
Фильмы с авторской озвучкой [ 1.46 GB ] Эффект бабочки / The Butterfly Effect [2004 HDRip] [Director's Cut] [AVO] killermax2013 Скачать
1 | 0
Фильмы [HD 720p, 1080p] (Хороший звук DUB, MVO) [ 6.48 GB ] Эффект бабочки. Трилогия / The Butterfly Effect. Trilogy [2004-2009 BDRip 720p] .::Sergey::. Скачать
1 | 0
Фильмы (Blu-ray, BD-Remux, HDDVD) [ 22.71 GB ] Эффект бабочки / The Butterfly Effect [2004 BDRemux 1080p] DUB+VO[Театральная версия / Theatrical Cut] Ворон Скачать
1 | 0
Фильмы [HD 720p, 1080p] (Хороший звук DUB, MVO) [ 14.59 GB ] Эффект бабочки [Театральная версия] / The Butterfly Effect [Theatrical Cut] [2004 BDRip 1080p ] Артронах Скачать
1 | 0
Порно фильмы с сюжетом [ 1.36 GB ] This Ain't Star Trek XXX 2: The Butterfly Effect / Не звёздный путь XXX 2: Эффект Бабочки [2009 Feature Parody DVDRip] Shmel Скачать
1 | 0
Сборники на DVD и Сиквелы [DVDrip, WEB-DLRip, HDrip, BDRip] [ 6.48 GB ] Эффект Бабочки: Коллекция / The Butterfly Effect: Collection [2004-2009 BDRip] Trust Скачать
1 | 0
Сборники на DVD и Сиквелы [DVDrip, WEB-DLRip, HDrip, BDRip] [ 2.18 GB ] Эффект бабочки: Трилогия / The Butterfly Effect: Trilogy [2004 - 2009 HDRip] yrgent9032 Скачать
1 | 0

28-11-2019 20:33  

Отключить всю рекламу на сайте

15-07-2012 12:05 Эффект бабочки Скачать торрент  

Фильм-супер!piratbit.org



    Дорогой пользователь! Огромная просьба, поблагодарите релизера, оцените раздачу и оставьте свои комментарий, если Вы скачали Эффект бабочки через торрент бесплатно! Внесите свою лепту в развитие PiratBit!
    Комментировать посты могут только пользователи прошедшие не сложную регистрацию
    Показать сообщения:    

    Эффект бабочки через торрент
    Скачать бесплатно Эффект бабочки
    Эффект бабочки скачать торрент
    Эффект бабочки смотреть онлайн
    Cкачать фильм Эффект бабочки бесплатно
    Эффект бабочки скачать торрент в хорошем качестве
    Эффект бабочки смотреть онлайн бесплатно в хорошем качестве


    Вы не можете начинать темы
    Вы не можете отвечать на сообщения
    Вы не можете редактировать свои сообщения
    Вы не можете удалять свои сообщения
    Вы не можете голосовать в опросах
    Вы не можете прикреплять файлы к сообщениям
    Вы можете скачивать файлы