Ссылка на приватное зеркало всего за 1$. Внимание количество ограничено!!!

iTunes

iTunes

iTunes

1

iTunes

iTunes

iTunes

iTunes

iTunes

30
pack

Новость дня

ВАЖНО

!!Акция!!

Alien_RageХит недели

RePack

Resident Evil 21

ИГРА 18+

pack

RePack

jed

!!Акция!!

Alien_Rage

RePack

fifa19

RePack

Assassins Creed: Odyssey

RePack

NEED FOR SPEED™ PAYBACK

4 сезон

9 сезон

Бесстыжие 9 сезон

Все сериалы

все сериалы на PB.wtf

RePack

FAR CRY 5
  

Остров сокровищ / Treasure Island (Стив Бэррон) [2012 г., приключения, Blu-Ray Remux (1080p), Профессиональный (многоголосый)"Вольга", R5] piratbit.org

Остров сокровищ через торрент piratbit.org

Размер: 21.05 GB | Добавлен: 7 лет 8 мес. назад | Торрент скачан:241 раз
Скачать  

17-07-2012 07:16 Остров сокровищ Скачать торрент  

Остров сокровищ / Treasure Island
Год выпуска: 2012
Страна: Великобритания, Ирландия
Жанр: приключения
Продолжительность: 03:02:14
Перевод: Профессиональный (многоголосый) "Вольга", R5
Cубтитры: Нет
Режиссер: Стив Бэррон
Продюссер: Лори Борг, Алан Молони, Мелани Стоукс
Сценарий: Стюарт Харкорт
Премьера в мире: 1 января 2012
Релиз на DVD:12 апреля 2012, «Вольга»

В ролях: Эдди Иззард, Тоби Регбо, Руперт Пенри-Джонс, Дэниэл Мейс, Филип Гленистер, Дональд Сазерленд, Элайджа Вуд, Ширли Хендерсон, Нина Сосанья, Джофф Белл
Описание: Юный Джим Хокинс и его старшие друзья - доктор Ливси и сквайр Трелони - становятся обладателями карты, когда-то принадлежавшей легендарному капитану Флинту. На ней указаны координаты затерянного в Атлантическом океане острова, где спрятаны сокровища знаменитого флибустьера. Вскоре на шхуне "Испаньола" они начинают опасное плавание, не догадываясь, что вместе с ними за кладом, притворившись скромным корабельным коком, отправился кровожадный пират Джон Сильвер, а с ним - несколько его безжалостных сообщников из команды Флинта...

Качество: Blu-Ray Remux (1080p)
Формат: MKV
Видео кодек: H.264x
Аудио кодек: AC3
Видео: AVC at 14,4 Мбит/сек : 1920 x 1080 (1.778) at 24.000 fps
Аудио#1: AC-3 at 256 Кбит/сек: 6 каналов, 48,0 КГц Русский
Аудио#2: DTS at 1561 Кбит/сек / 1510 Кбит/сек : 6 каналов, 48,0 КГц Английский
Уникальный идентификатор : 239844578617064820251867930253797363382 (0xB47062B667427B36A7AA5FE9C2F40EB6)
Полное имя : C:\Documents and Settings\Admin\Рабочий стол\торы\Ostrov.sokroviw.(1-2.serii.iz.2).2012.x264.Blu-Ray.Remux.1080p.mkv
Формат : Matroska
Размер файла : 21,1 Гбайт
Продолжительность : 3 ч. 2 м.
Общий поток : 16,5 Мбит/сек
Название фильма : hdtracker.org
Дата кодирования : UTC 2012-07-14 13:51:12
Программа кодирования : mkvmerge v4.0.0 ('The Stars were mine') сборка от Jun 6 2010 16:18:42
Библиотека кодирования : libebml v1.0.0 + libmatroska v1.0.0

Видео
Идентификатор : 1
Формат : AVC
Формат/Информация : Advanced Video Codec
Профиль формата : High@L4.1
Параметр CABAC формата : Да
Параметр ReFrames формата : 3 кадра
Идентификатор кодека : V_MPEG4/ISO/AVC
Продолжительность : 3 ч. 2 м.
Вид битрейта : Переменный
Битрейт : 14,4 Мбит/сек
Максимальный битрейт : 29,9 Мбит/сек
Ширина : 1920 пикс.
Высота : 1080 пикс.
Соотношение сторон : 16:9
Частота кадров : 24,000 кадр/сек
Стандарт вещания : NTSC
Цветовое пространство : YUV
Подвыборка цветности : 4:2:0
Битовая глубина : 8 бит
Тип развёртки : Прогрессивная
Бит/(Пиксели*Кадры) : 0.289
Размер потока : 18,3 Гбайт (87%)
Язык : English
Основные цвета : BT.709-5, BT.1361, IEC 61966-2-4, SMPTE RP177
Характеристики трансфера : BT.709-5, BT.1361
Коэффициенты матрицы : BT.709-5, BT.1361, IEC 61966-2-4 709, SMPTE RP177

Аудио #1
Идентификатор : 2
Формат : AC-3
Формат/Информация : Audio Coding 3
Расширение режима : CM (complete main)
Идентификатор кодека : A_AC3
Продолжительность : 3 ч. 2 м.
Вид битрейта : Постоянный
Битрейт : 256 Кбит/сек
Каналы : 6 каналов
Расположение каналов : Front: L C R, Side: L R, LFE
Частота : 48,0 КГц
Битовая глубина : 16 бит
Метод сжатия : С потерями
Размер потока : 334 Мбайт (2%)
Язык : Russian

Аудио #2
Идентификатор : 3
Формат : DTS
Формат/Информация : Digital Theater Systems
Профиль формата : MA / Core
Идентификатор кодека : A_DTS
Продолжительность : 3 ч. 2 м.
Вид битрейта : Переменный
Битрейт : 1561 Кбит/сек / 1510 Кбит/сек
Каналы : 6 каналов
Расположение каналов : Front: L C R, Side: L R, LFE
Частота : 48,0 КГц
Битовая глубина : 16 бит
Метод сжатия : Без потерь / Lossy
Язык : English

Меню
00:00:00.000 : :Chapter 01
00:05:00.666 : :Chapter 02
00:14:30.916 : :Chapter 03
00:28:05.833 : :Chapter 04
00:42:18.666 : :Chapter 05
00:53:24.041 : :Chapter 06
01:03:48.125 : :Chapter 07
01:14:12.791 : :Chapter 08
01:23:41.583 : :Chapter 09
01:30:00.000 : :Chapter 10
01:35:33.125 : :Chapter 11
01:40:01.000 : :Chapter 12
02:04:15.833 : :Chapter 13
02:18:10.500 : :Chapter 14
02:32:18.208 : :Chapter 15
02:45:34.083 : :Chapter 16
03:00:19.916 : :Chapter 17
03:02:13.000 : :Chapter 18

piratbit.org



Скачать Остров сокровищ через торрент http://pic.kartinco.top/images/1/rr7xd7cgpk.jpg Скачать фильм Остров сокровищ через торрент бесплантно в хорошем качестве Описание: Юный Джим Хокинс и его старшие друзья - доктор Ливси и сквайр Трелони - становятся обладателями карты, когда-то принадлежавшей ... 10 10 1
Info! Золотая раздача, скачанное не засчитывается.
Торрент: Зарегистрирован [2012-07-17 07:16] · скачан: 241 раз
Статус: √ проверено
Размер: 21.05 GB
Как cкачать? Как скачать Остров сокровищ через торрент | qTorrent

28-11-2019 20:33  

Отключить всю рекламу на сайте

17-07-2012 13:10 Остров сокровищ Скачать торрент  

Классный фильм , рекомендую!piratbit.org



17-07-2012 14:52 Остров сокровищ Скачать торрент  

больно размер высокийpiratbit.org



02-04-2015 11:22 Остров сокровищ Скачать торрент  

будет раздача Г-Н (а) ????piratbit.org



    Дорогой пользователь! Огромная просьба, поблагодарите релизера, оцените раздачу и оставьте свои комментарий, если Вы скачали Остров сокровищ через торрент бесплатно! Внесите свою лепту в развитие PiratBit!
    Комментировать посты могут только пользователи прошедшие не сложную регистрацию
    Показать сообщения:    

    Остров сокровищ через торрент
    Скачать бесплатно Остров сокровищ
    Остров сокровищ скачать торрент
    Остров сокровищ смотреть онлайн
    Cкачать фильм Остров сокровищ бесплатно
    Остров сокровищ скачать торрент в хорошем качестве
    Остров сокровищ смотреть онлайн бесплатно в хорошем качестве


    Вы не можете начинать темы
    Вы не можете отвечать на сообщения
    Вы не можете редактировать свои сообщения
    Вы не можете удалять свои сообщения
    Вы не можете голосовать в опросах
    Вы не можете прикреплять файлы к сообщениям
    Вы можете скачивать файлы