Ссылка на приватное зеркало нашего сайта всего за 1$. Внимание количество ограничено!!!

2 сезон

iTunes

iTunes

1

iTunes

iTunes

iTunes

WEBRip

iTunes

30
pack

Вам бонус

ВАЖНО

!!Акция!!

Alien_RageХит недели

RePack

Horizon Zero Dawn

ИГРА 18+

pack

RePack

jed

!!Акция!!

Alien_Rage

RePack

fifa19

RePack

Assassins Creed: Odyssey

RePack

NEED FOR SPEED™ PAYBACK

4 сезон

9 сезон

Бесстыжие 9 сезон

Все сериалы

все сериалы на PB.wtf

RePack

FAR CRY 5
  

Мумия: Гробница Императора Драконов / The Mummy: Tomb of the Dragon Emperor (Роб Коэн) [2008 г., Ужасы, боевик, триллер, фэнтези, приключения, BDRip, Профессиональный (многоголосый) (лицензия)] piratbit.org

Мумия: Гробница Императора Драконов через торрент piratbit.org

Размер: 2.3 GB | Добавлен: 8 лет 2 мес. назад | Торрент скачан:123 раза
Скачать  

19-07-2012 20:24 Мумия: Гробница Императора Драконов Скачать торрент  

Мумия: Гробница Императора Драконов / The Mummy: Tomb of the Dragon Emperor

Год выпуска: 2008
Страна: Германия, США
Жанр: Ужасы, боевик, триллер, фэнтези, приключения
Продолжительность: 01:51:40
Перевод: Профессиональный (многоголосый) (Лицензия)
Текст:English

Режиссер: Роб Коэн
Продюссер: Стивен Соммерс, Шон Дэниэл, Боб Дюксэй
Сценарий: Джон Л. Болдерстон, Стивен Соммерс, Альфред Гоф,

Бюджет: $145 000 000



В ролях: Джет Ли, Брендан Фрейзер, Мария Белло, Джон Ханна, Мишель Йео, Люк Форд, Изабелла Люн, Энтони Вонг Чау-Санг, Расселл Вонг, Лайам Каннингэм

Описание: Заколдованный волшебницей, безжалостный китайский император-дракон должен провести вечность в забвении. Его 10 000 воинов превратились в терракотовых воинов. Однако когда искатель приключений Алекс О`Коннелл случайно пробуждает властителя от вечной спячки, он вынужден искать помощи у единственных людей, которые знают, как справиться с воскресшими мертвецами: у своих родителей. Монарх возвращается к жизни, и наши герои понимают, что его сила за эту тысячу лет только увеличилась. Мумия готова поднять всю Азию в борьбе за мировое господство… если О`Коннеллы ее не остановят.

Качество: BDRip
Формат: MKV
Видео кодек: AVC
Аудио кодек: AC3
Видео: AVC, 1280x536, (2,35:1) 23.976 fps, 2177 Kbps, 0.132 Kbps
Аудио#1: AC-3, 48.0 KHz, 6 ch, 384 Kbps (Russian )
Аудио#2: AC-3, 48.0 KHz, 6 ch, 384 Kbps (English )
Текст:English

Общее
Уникальный идентификатор : 211348859977589337489254898214368227520 (0x9F004F4FFD566C4F92516731B4F0B0C0)
Полное имя : D:\DVD\The Mummy-Tomb of the Dragon Emperor 2008 720p BDRip H.264 5.1 AC3.mkv
Формат : Matroska
Размер файла : 2,30 Гбайт
Продолжительность : 1 ч. 51 м.
Общий поток : 2947 Кбит/сек
Название фильма : The Mummy-Tomb of the Dragon Emperor 2008 720p BDRip H.264 5.1 AC3(Slav)
Дата кодирования : UTC 2012-07-18 12:24:16
Программа кодирования : mkvmerge v3.4.0 ('Rapunzel') сборка от May 15 2010 09:38:20
Библиотека кодирования : libebml v0.8.0 + libmatroska v0.9.0

Видео
Идентификатор : 1
Формат : AVC
Формат/Информация : Advanced Video Codec
Профиль формата : High@L4.1
Параметр CABAC формата : Да
Параметр ReFrames формата : 6 кадры
Идентификатор кодека : V_MPEG4/ISO/AVC
Продолжительность : 1 ч. 51 м.
Битрейт : 2177 Кбит/сек
Ширина : 1280 пикс.
Высота : 536 пикс.
Соотношение сторон : 16:9
Соотношение сторон в оригинале : 2,35:1
Частота кадров : 23,976 кадр/сек
Цветовое пространство : YUV
Подвыборка цветности : 4:2:0
Битовая глубина : 8 бит
Тип развёртки : Прогрессивная
Бит/(Пиксели*Кадры) : 0.132
Размер потока : 1,65 Гбайт (72%)
Библиотека кодирования : x264 core 67 r1162M f7bfcfa
Настройки программы : cabac=1 / ref=6 / deblock=1:-3:-3 / analyse=0x3:0x113 / me=umh / subme=7 / psy_rd=1.0:0.0 / mixed_ref=1 / me_range=16 / chroma_me=1 / trellis=2 / 8x8dct=1 / cqm=2 / deadzone=21,11 / chroma_qp_offset=-2 / threads=3 / nr=0 / decimate=0 / mbaff=0 / bframes=3 / b_pyramid=1 / b_adapt=2 / b_bias=0 / direct=3 / wpredb=1 / keyint=250 / keyint_min=25 / scenecut=40 / rc=2pass / bitrate=2177 / ratetol=1.0 / qcomp=0.60 / qpmin=10 / qpmax=51 / qpstep=4 / cplxblur=20.0 / qblur=0.5 / ip_ratio=1.40 / pb_ratio=1.30 / aq=1:1.00
Язык : English

Аудио #1
Идентификатор : 2
Формат : AC-3
Формат/Информация : Audio Coding 3
Расширение режима : CM (complete main)
Идентификатор кодека : A_AC3
Продолжительность : 1 ч. 51 м.
Вид битрейта : Постоянный
Битрейт : 384 Кбит/сек
Канал(ы) : 6 канала(ов)
Расположение каналов : Front: L C R, Side: L R, LFE
Частота : 48,0 КГц
Битовая глубина : 16 бит
Метод сжатия : С потерями
Размер потока : 307 Мбайт (13%)
Язык : Russian

Аудио #2
Идентификатор : 3
Формат : AC-3
Формат/Информация : Audio Coding 3
Расширение режима : CM (complete main)
Идентификатор кодека : A_AC3
Продолжительность : 1 ч. 51 м.
Вид битрейта : Постоянный
Битрейт : 384 Кбит/сек
Канал(ы) : 6 канала(ов)
Расположение каналов : Front: L C R, Side: L R, LFE
Частота : 48,0 КГц
Битовая глубина : 16 бит
Метод сжатия : С потерями
Размер потока : 307 Мбайт (13%)
Язык : English

Текст
Идентификатор : 4
Формат : UTF-8
Идентификатор кодека : S_TEXT/UTF8
Идентификатор кодека/Информация : UTF-8 Plain Text
Язык : English

piratbit.org



Скачать Мумия: Гробница Императора Драконов через торрент http://pic.kartinco.top/images/1/vehrinp8n4.jpg Скачать фильм Мумия: Гробница Императора Драконов через торрент бесплантно в хорошем качестве Описание: Заколдованный волшебницей, безжалостный китайский император-дракон должен провести вечность в забвении. Его 10 000 воинов ... 10 10 10
Info! Золотая раздача, скачанное не засчитывается.
Торрент: Зарегистрирован [2012-07-19 20:24] · скачан: 123 раз
Статус: √ проверено
Размер: 2.3 GB
Как cкачать? Как скачать Мумия: Гробница Императора Драконов через торрент | qTorrent

% Раздел Тема Автор DL S | L
Фильмы (HD 720p, 1080p) (48-60 fps) [ 4.88 GB ] Мумия: Гробница Императора Драконов / The Mummy: Tomb of the Dragon Emperor [2008 BDRip 720p ] slaventi-69 Скачать
2 | 0
Фильмы [HD 720p, 1080p] (Хороший звук DUB, MVO) [ 5.41 GB ] Мумия: Гробница Императора Драконов / The Mummy: Tomb of the Dragon Emperor [2008 BDRip 1080p HEVC ] Мичман37 Скачать
1 | 0
Ultra HD (UHD: 2K, 4K, 8K) — видео сверхвысокой чёткости [ 55.83 GB ] Мумия: Гробница Императора Драконов / The Mummy: Tomb of the Dragon Emperor [2008 UHD BDRemux 2160p] DUB+2xAVO bober100 Скачать
1 | 0
Фильмы (Blu-ray, BD-Remux, HDDVD) [ 19.12 GB ] Мумия: Гробница Императора Драконов / The Mummy: Tomb of the Dragon Emperor [2008 BD-Remux ] Артронах Скачать
1 | 0
Фильмы 2006-2008 [ 2.16 GB ] Мумия: Гробница Императора Драконов / The Mummy: Tomb of the Dragon Emperor [2008 DVDRip] slav4i4ok Скачать
1 | 0

28-11-2019 20:33  

Отключить всю рекламу на сайте

19-07-2012 21:25 Мумия: Гробница Императора Драконов Скачать торрент  

slaventi-69
Если Аудио дорожек две и более, их нужно подписывать.
piratbit.org



20-07-2012 05:05 Мумия: Гробница Императора Драконов Скачать торрент  

Все понял. Спасибо.piratbit.org



20-07-2012 06:27 Мумия: Гробница Императора Драконов Скачать торрент  

Самый слабенький из трёх частейpiratbit.org



    Дорогой пользователь! Огромная просьба, поблагодарите релизера, оцените раздачу и оставьте свои комментарий, если Вы скачали Мумия: Гробница Императора Драконов через торрент бесплатно! Внесите свою лепту в развитие PiratBit!
    Комментировать посты могут только пользователи прошедшие не сложную регистрацию
    Показать сообщения:    

    Мумия: Гробница Императора Драконов через торрент
    Скачать бесплатно Мумия: Гробница Императора Драконов
    Мумия: Гробница Императора Драконов скачать торрент
    Мумия: Гробница Императора Драконов смотреть онлайн
    Cкачать фильм Мумия: Гробница Императора Драконов бесплатно
    Мумия: Гробница Императора Драконов скачать торрент в хорошем качестве
    Мумия: Гробница Императора Драконов смотреть онлайн бесплатно в хорошем качестве


    Вы не можете начинать темы
    Вы не можете отвечать на сообщения
    Вы не можете редактировать свои сообщения
    Вы не можете удалять свои сообщения
    Вы не можете голосовать в опросах
    Вы не можете прикреплять файлы к сообщениям
    Вы можете скачивать файлы