1 сезон

3 сезон

iTunes

1

iTunes

MVO

iTunes

13

1 сезон

RePack

30

Deluxe

pack

Лицензия

ВАЖНО

ИГРА 18+

pack

RePack

MK11

RePack

jed

RePack

fifa19

RePack

RDR2

RePack

NEED FOR SPEED™ PAYBACK

4 сезон

9 сезон

Бесстыжие 9 сезон

Все сериалы

все сериалы на PB.wtf

RePack

FAR CRY 5

Anonymous, доброй ночи, мы катастрофически не успеваем собрать деньги на оплату серверов, помогите нам пожалуйста 5,10,15р., для нас важна любая помощь . В качестве благодарности мы отключим Вам всю рекламу на сайте (укажите свой ник в строку Ваше имя)!

×
  
Magnet ссылка

Умереть первым / First to die (Рассел Малкэй) [2003 г., боевик, триллер, драма, криминал, детектив, DVDRip, DVOзакадровый ] piratbit.org

Умереть первым через торрент piratbit.org

Размер: 2.19 GB | Добавлен: 9 лет назад | Торрент скачан:30 раз
Скачать  

20-07-2012 09:23 Умереть первым Скачать торрент  

Умереть первым / First to die

Год выпуска: 2003
Страна: США
Жанр: боевик, триллер, драма, криминал, детектив
Продолжительность: 02:42:20
Перевод: Профессиональный (двухголосый)закадровый
Режиссер: Рассел Малкэй
Продюссер: Трэйси Джеффри, Майкл О’Хара, Джеймс Паттерсон
Сценарий: Майкл О’Хара, Джеймс Паттерсон

Премьера в мире: 23 февраля 2003

рейтинг MPAA R- лицам до 17 лет обязательно присутствие взрослого
IMDb: 5.60 (490)
Кинопоиск: 7.550 40

В ролях: Шон Янг, Роберт Патрик, Трэйси Поллан, Меган Галлахер, Энджи Эверхарт, Пэм Гриер, Митч Пиледжи, Гил Беллоуз

Описание: Детектив Линдси Боксер - единственная женщина в убойном отделе полиции Сан-Франциско, один из лучших специалистов по раскрытию убийств. Но даже она оказалась не готова к делу, которое ей поручено расследовать. Неизвестный маньяк зверски убивает молодоженов в их первую брачную ночь. Обычные процедуры, принятые при расследовании подобных преступлений, ни на шаг не приблизили ее к разгадке. Решимость поймать маньяка, совершающего все новые убийства, натолкнула Линдси на мысль о создании своеобразного "Женского клуба" - команды по расследованию этого дела с участием патологоанатома Клэр, журналистки Синди и сотрудницы прокуратуры Джилл. Вместе они идут по следам убийцы, потрясшего своими преступлениями весь город...

Качество: DVDRip
Формат: AVI
Видео кодек: XviD
Аудио кодек: AC3
Видео: 720x410 (1.76:1), 29.970 fps, XviD MPEG-4 ~1732 kbps avg, 0.20 bit/pixel
Аудио#1: 48 kHz, AC3 Dolby Digital, 2/0 (L,R) ch, ~192.00 kbps avg






Общее
Полное имя : H:torrentFirst to die.сторонний ресурс.avi
Формат : AVI
Формат/Информация : Audio Video Interleave
Профиль формата : OpenDML
Размер файла : 2,19 Гбайт
Продолжительность : 2 ч. 42 м.
Общий поток : 1933 Кбит/сек
Название фильма : _____.Title1.DVDRip
Программа кодирования : Lavf53.21.0
Формат оригинала/Имя : _____

Видео
Идентификатор : 0
Формат : MPEG-4 Visual
Профиль формата : Advanced Simple@L5
Параметр BVOP формата : 2
Параметр QPel формата : Нет
Параметр GMC формата : Без точки перехода
Параметр матрицы формата : Default (H.263)
Режим смешивания : Сжатый битовый поток
Идентификатор кодека : XVID
Идентификатор кодека/Подсказка : XviD
Продолжительность : 2 ч. 42 м.
Битрейт : 1730 Кбит/сек
Ширина : 720 пикс.
Высота : 410 пикс.
Соотношение сторон : 16:9
Частота кадров : 29,970 кадр/сек
Цветовое пространство : YUV
Подвыборка цветности : 4:2:0
Битовая глубина : 8 бит
Тип развёртки : Прогрессивная
Метод сжатия : С потерями
Бит/(Пиксели*Кадры) : 0.196
Размер потока : 1,96 Гбайт (89%)
Библиотека кодирования : XviD 1.2.1 (UTC 2008-12-04)

Аудио
Идентификатор : 1
Формат : AC-3
Формат/Информация : Audio Coding 3
Расширение режима : CM (complete main)
Идентификатор кодека : 2000
Продолжительность : 2 ч. 42 м.
Вид битрейта : Постоянный
Битрейт : 192 Кбит/сек
Каналы : 2 канала
Расположение каналов : Front: L R
Частота : 48,0 КГц
Битовая глубина : 16 бит
Метод сжатия : С потерями
Размер потока : 26,2 Мбайт (1%)
Выравнивание : Соединение по промежуткам
Продолжительность промежутка : 272 мс. (8,15 видеокадров)

piratbit.org



Скачать Умереть первым через торрент https://pic1.kartinco.top/images/111/xs3peami3e.jpg Скачать фильм Умереть первым через торрент бесплантно в хорошем качестве Описание: Детектив Линдси Боксер - единственная женщина в убойном отделе полиции Сан-Франциско, один из лучших специалистов по раскрытию ... 4.7 10 3
Info! Золотая раздача, скачанное не засчитывается.
Торрент: Зарегистрирован [2012-07-20 09:23] · скачан: 30 раз
Статус: √ проверено
Размер: 2.19 GB
Как cкачать? Как скачать Умереть первым через торрент | UTorrent



Последний раз редактировалось: jump88 (2012-07-20 10:07), всего редактировалось 2 раз(а)

28-11-2019 20:33  

Отключить всю рекламу на сайте

20-07-2012 09:44 Умереть первым Скачать торрент  

jump88
Укажи перевод в заголовке и в самой раздаче.piratbit.org



    Дорогой пользователь! Огромная просьба, поблагодарите релизера, оцените раздачу и оставьте свои комментарий, если Вы скачали Умереть первым через торрент бесплатно! Внесите свою лепту в развитие PiratBit!
    Комментировать посты могут только пользователи прошедшие не сложную регистрацию
    Показать сообщения:    

    Умереть первым через торрент
    Скачать бесплатно Умереть первым
    Умереть первым скачать торрент
    Умереть первым смотреть онлайн
    Cкачать фильм Умереть первым бесплатно
    Умереть первым скачать торрент в хорошем качестве
    Умереть первым смотреть онлайн бесплатно в хорошем качестве


    Вы не можете начинать темы
    Вы не можете отвечать на сообщения
    Вы не можете редактировать свои сообщения
    Вы не можете удалять свои сообщения
    Вы не можете голосовать в опросах
    Вы не можете прикреплять файлы к сообщениям
    Вы можете скачивать файлы