1 сезон

iTunes

iTunes

1

Line

MVO

iTunes

13

1 сезон

RePack

30

Deluxe

pack

Лицензия

ВАЖНО

ИГРА 18+

pack

RePack

MK11

RePack

jed

RePack

fifa19

RePack

RDR2

RePack

NEED FOR SPEED™ PAYBACK

4 сезон

9 сезон

Бесстыжие 9 сезон

Все сериалы

все сериалы на PB.wtf

RePack

FAR CRY 5

Anonymous, доброе утро, мы катастрофически не успеваем собрать деньги на оплату серверов, помогите нам пожалуйста 5,10,15р., для нас важна любая помощь . В качестве благодарности мы отключим Вам всю рекламу на сайте (укажите свой ник в строку Ваше имя)!

×
  
Magnet ссылка

Мумия возвращается / The Mummy Returns (Стивен Соммерс) [2001 г., ужасы, фэнтези, боевик, триллер, комедия, BDRip, Профессиональный (многоголосый) (лицензия)] piratbit.org

Мумия возвращается через торрент piratbit.org

Размер: 1.95 GB | Добавлен: 9 лет назад | Торрент скачан:138 раз
Скачать  

27-07-2012 10:18 Мумия возвращается Скачать торрент  

Мумия возвращается / The Mummy Returns

Год выпуска: 2001
Страна: США
Жанр: ужасы, фэнтези, боевик, триллер, комедия
Продолжительность: 02:09:31
Перевод: Профессиональный (многоголосый) (Лицензия)

Режиссер: Стивен Соммерс
Продюссер: Шон Дэниэл, Боб Дюксэй, Джеймс Джекс
Сценарий: Стивен Соммерс

Бюджет: $98 000 000
Премьера в мире: 29 апреля 2001

IMDB 6.20 (126 486)


В ролях: Брендан Фрэйзер, Рэйчел Уайз, Джон Ханна, Арнольд Вослу, Одед Фехр, Фредди Боут, Патрисия Веласкес, Алун Армстронг, Шон Паркc, Адевале Акиннуойе-Агбайе, Дуэйн Джонсон

Описание: Прошло десять лет. Рик и Эвелин наслаждаются счастливым браком, воспитывая своего девятилетнего сына Алекса. Тем временем ученые обнаруживают мумию Имхотепа и перевозят в Лондонской Музей. Остатки древнего зла все еще теплятся внутри саркофага, и Имхотеп вновь вырывается на волю. Однако тайные ритуалы египетских жрецов вызывают к жизни силу, куда более могущественную. В столкновении между ними на чаши весов ложится жизнь всего мира. Рик и Эвелин отчаянно пытаются противостоять злу и спасти своего сына, пока не стало слишком поздно...

Качество: BDRip
Формат: MKV
Видео кодек: H.26x
Аудио кодек: AC3
Видео: 1056x448 (2,35:1), 23,976 кадр/сек, 1769 Кбит/сек, 0.156 bit/pixel
Аудио#1: AС3, 6 ch., 48,0 kHz, 384 kbps | RUS

Общее
Уникальный идентификатор : 202729582460337673002298056824480489004 (0x98844C1EF4B1A6D5931502992C725E2C)
Полное имя : D:\DVD\The Mummy Returns.2001.BDRip.x264.mkv
Формат : Matroska
Размер файла : 1,95 Гбайт
Продолжительность : 2 ч. 9 м.
Общий поток : 2155 Кбит/сек
Название фильма : The Mummy Returns.2001.BDRip.x264.(Slav)
Дата кодирования : UTC 2012-07-21 15:27:45
Программа кодирования : mkvmerge v3.4.0 ('Rapunzel') сборка от May 15 2010 09:38:20
Библиотека кодирования : libebml v0.8.0 + libmatroska v0.9.0

Видео
Идентификатор : 1
Формат : AVC
Формат/Информация : Advanced Video Codec
Профиль формата : High@L4.1
Параметр CABAC формата : Да
Параметр ReFrames формата : 11 кадры
Идентификатор кодека : V_MPEG4/ISO/AVC
Продолжительность : 2 ч. 9 м.
Битрейт : 1769 Кбит/сек
Ширина : 1056 пикс.
Высота : 448 пикс.
Соотношение сторон : 2,35:1
Режим частоты кадров : Переменный
Частота кадров : 23,976 кадр/сек
Цветовое пространство : YUV
Подвыборка цветности : 4:2:0
Битовая глубина : 8 бит
Тип развёртки : Прогрессивная
Бит/(Пиксели*Кадры) : 0.156
Размер потока : 1,56 Гбайт (80%)
Заголовок : The Mummy Returns.2001.BDRip.x264
Библиотека кодирования : x264 core 116 r2019M 9cc407d
Настройки программы : cabac=1 / ref=12 / deblock=1:-2:-2 / analyse=0x3:0x133 / me=umh / subme=10 / psy=1 / psy_rd=1.00:0.20 / mixed_ref=1 / me_range=32 / chroma_me=1 / trellis=2 / 8x8dct=1 / cqm=0 / deadzone=21,11 / fast_pskip=1 / chroma_qp_offset=-3 / threads=8 / sliced_threads=0 / nr=0 / decimate=1 / interlaced=0 / bluray_compat=0 / constrained_intra=0 / bframes=3 / b_pyramid=1 / b_adapt=2 / b_bias=0 / direct=3 / weightb=1 / open_gop=0 / weightp=2 / keyint=230 / keyint_min=23 / scenecut=40 / intra_refresh=0 / rc_lookahead=40 / rc=2pass / mbtree=1 / bitrate=1769 / ratetol=1.0 / qcomp=0.60 / qpmin=10 / qpmax=51 / qpstep=4 / cplxblur=20.0 / qblur=0.5 / ip_ratio=1.40 / aq=1:1.00
Язык : English

Аудио
Идентификатор : 2
Формат : AC-3
Формат/Информация : Audio Coding 3
Расширение режима : CM (complete main)
Идентификатор кодека : A_AC3
Продолжительность : 2 ч. 9 м.
Вид битрейта : Постоянный
Битрейт : 384 Кбит/сек
Канал(ы) : 6 канала(ов)
Расположение каналов : Front: L C R, Side: L R, LFE
Частота : 48,0 КГц
Битовая глубина : 16 бит
Метод сжатия : С потерями
Размер потока : 356 Мбайт (18%)
Язык : Russian

piratbit.org



Скачать Мумия возвращается через торрент http://s46.radikal.ru/i113/1111/e2/e11bcac8334f.jpg Скачать фильм Мумия возвращается через торрент бесплантно в хорошем качестве Описание: Прошло десять лет. Рик и Эвелин наслаждаются счастливым браком, воспитывая своего девятилетнего сына Алекса. Тем временем ученые ... 10 10 10
Info! Золотая раздача, скачанное не засчитывается.
Торрент: Зарегистрирован [2012-07-27 10:18] · скачан: 138 раз
Статус: √ проверено
Размер: 1.95 GB
Как cкачать? Как скачать Мумия возвращается через торрент | UTorrent

% Раздел Тема Автор DL S | L
Фильмы (HD 720p, 1080p) (48-60 fps) [ 7.03 GB ] Мумия возвращается / The Mummy Returns [2001 BDRip 720p ] slaventi-69 Скачать
1 | 0
Фильмы [HD 720p, 1080p] (Хороший звук DUB, MVO) [ 5.96 GB ] Мумия возвращается / The Mummy Returns [2001 HDDVDRip 1080p HEVC ] Мичман37 Скачать
1 | 0
Ultra HD (UHD: 2K, 4K, 8K) — видео сверхвысокой чёткости [ 57.74 GB ] Мумия возвращается / The Mummy Returns [2001 UHD BDRemux 2160p] DUB + 2xMVO + DVO + 3xAVO sheker187 Скачать
1 | 0
Фильмы (Blu-ray, BD-Remux, HDDVD) [ 22.09 GB ] Мумия возвращается / The Mummy Returns [2001 HD-DVD-Remux MVO] Артронах Скачать
1 | 0

28-11-2019 20:33  

Отключить всю рекламу на сайте

15-09-2014 16:50 Мумия возвращается Скачать торрент  

дайте скорости,заснуть можно!piratbit.org



22-01-2016 14:24 Мумия возвращается Скачать торрент  

hivman писал(а):

дайте скорости,заснуть можно!

Да. Вообще жестьpiratbit.org



    Дорогой пользователь! Огромная просьба, поблагодарите релизера, оцените раздачу и оставьте свои комментарий, если Вы скачали Мумия возвращается через торрент бесплатно! Внесите свою лепту в развитие PiratBit!
    Комментировать посты могут только пользователи прошедшие не сложную регистрацию
    Показать сообщения:    

    Мумия возвращается через торрент
    Скачать бесплатно Мумия возвращается
    Мумия возвращается скачать торрент
    Мумия возвращается смотреть онлайн
    Cкачать фильм Мумия возвращается бесплатно
    Мумия возвращается скачать торрент в хорошем качестве
    Мумия возвращается смотреть онлайн бесплатно в хорошем качестве


    Вы не можете начинать темы
    Вы не можете отвечать на сообщения
    Вы не можете редактировать свои сообщения
    Вы не можете удалять свои сообщения
    Вы не можете голосовать в опросах
    Вы не можете прикреплять файлы к сообщениям
    Вы можете скачивать файлы