Ссылка на приватное зеркало нашего сайта всего за 1$. Внимание количество ограничено!!!

2 сезон

iTunes

iTunes

1

iTunes

iTunes

iTunes

WEBRip

iTunes

30
pack

Вам бонус

ВАЖНО

!!Акция!!

Alien_RageХит недели

RePack

Horizon Zero Dawn

ИГРА 18+

pack

RePack

jed

!!Акция!!

Alien_Rage

RePack

fifa19

RePack

Assassins Creed: Odyssey

RePack

NEED FOR SPEED™ PAYBACK

4 сезон

9 сезон

Бесстыжие 9 сезон

Все сериалы

все сериалы на PB.wtf

RePack

FAR CRY 5
  

Поезд дальше не идет / Stag Night (Питер Э. Даулинг) [2008 г., ужасы, триллер, DVDRip, Профессиональный (многоголосый) (лицензия)] piratbit.org

Поезд дальше не идет через торрент piratbit.org

Размер: 1.36 GB | Добавлен: 8 лет 2 мес. назад | Торрент скачан:177 раз
Скачать  

27-07-2012 15:03 Поезд дальше не идет Скачать торрент  

Поезд дальше не идет / Stag Night

Год выпуска: 2008
Страна: США
Жанр: ужасы, триллер
Продолжительность: 01:20:07
Перевод: Профессиональный (многоголосый) (Лицензия)
Субтитры: Отсутствуют

Режиссер: Питер Э. Даулинг
Продюссер: Кристофер Эбертс, Арнольд Рифкин, Майкл Филип

IMDB 4.80 (1 531)


В ролях: Кип Парду, Брекин Мейер, Винесса Шоу, Скотт Эдкинс, Карл Джиари, Люка Берковичи, Итай Дьяков, Николай Сотиров

Описание: Планируя добраться до другого бара и продолжить прерванное празднование мальчишника, четверо парней успевают запрыгнуть в последний ночной поезд метро и встречают в нём двух девушек. Во время знакомства происходит неприятный инцидент, после чего вся компания оказывается на станции, заброшенной в далёких 70-х. Начав исследовать туннели в поисках выхода, молодые люди становятся свидетелями жестокого убийства полицейского группой бездомных людей, которые начинают на них охоту.

Качество: DVDRip
Формат: AVI
Видео кодек: XviD
Аудио кодек: AC3
Видео: 720x400 (1.80:1), 25 fps, XviD build 50 ~2043 kbps avg, 0.28 bit/pixel
Аудио#1: 48 kHz, AC3 Dolby Digital, 3/2 (L,C,R,l,r) + LFE ch, ~384 kbps




Общее
Полное имя : F:\Закачки\Poezd.dalshe.ne.idet.2008.XviD.DVDRip.avi
Формат : AVI
Формат/Информация : Audio Video Interleave
Размер файла : 1,36 Гбайт
Продолжительность : 1 ч. 20 м.
Общий поток : 2437 Кбит/сек
Название фильма : Poezd.dalshe.ne.idet.2008.P.DVDRip.[uniongang.tv]
Режиссёр : ELEKTRO-Am
Программа кодирования : VirtualDubMod 1.5.10.2 (build 2540/release)
Правообладатель : UNIONGANG.TV

Видео
Идентификатор : 0
Формат : MPEG-4 Visual
Профиль формата : Advanced Simple@L5
Параметр BVOP формата : 3
Параметр QPel формата : Нет
Параметр GMC формата : Без точки перехода
Параметр матрицы формата : Выборочная
Идентификатор кодека : XVID
Идентификатор кодека/Подсказка : XviD
Продолжительность : 1 ч. 20 м.
Битрейт : 2044 Кбит/сек
Ширина : 720 пикселей
Высота : 400 пикселей
Соотношение сторон : 16:9
Частота кадров : 25,000 кадров/сек
Цветовое пространство : YUV
Субдискретизация насыщенности : 4:2:0
Битовая глубина : 8 бит
Тип развёртки : Прогрессивная
Метод сжатия : С потерями
Бит/(Пиксели*Кадры) : 0.284
Размер потока : 1,14 Гбайт (84%)
Библиотека кодирования : XviD 1.2.1 (UTC 2008-12-04)

Аудио
Идентификатор : 1
Формат : AC-3
Формат/Информация : Audio Coding 3
Расширение режима : CM (complete main)
Параметр Endianness формата : Big
Идентификатор кодека : 2000
Продолжительность : 1 ч. 20 м.
Вид битрейта : Постоянный
Битрейт : 384 Кбит/сек
Каналы : 6 каналов
Расположение каналов : Front: L C R, Side: L R, LFE
Частота : 48,0 КГц
Битовая глубина : 16 бит
Метод сжатия : С потерями
Размер потока : 220 Мбайт (16%)
Выравнивание : Разделение по промежуткам
Продолжительность промежутка : 40 мс. (1,00 видеокадр)
Время предзагрузки промежутка : 500 мс.

piratbit.org



Скачать Поезд дальше не идет через торрент http://pic.kartinco.top/images/1/5sov4frb5o.jpg Скачать фильм Поезд дальше не идет через торрент бесплантно в хорошем качестве Описание: Планируя добраться до другого бара и продолжить прерванное празднование мальчишника, четверо парней успевают запрыгнуть в ... 10 10 2
Info! Золотая раздача, скачанное не засчитывается.
Торрент: Зарегистрирован [2012-07-27 15:03] · скачан: 177 раз
Статус: √ проверено
Размер: 1.36 GB
Как cкачать? Как скачать Поезд дальше не идет через торрент | qTorrent

% Раздел Тема Автор DL S | L
Фильмы (Blu-ray, BD-Remux, HDDVD) [ 16.94 GB ] Поезд дальше не идёт / Stag Night [2008 Blu-Ray Remux 1080p] MVO VO Леонид Ильич Скачать
1 | 0
Фильмы 2006-2008 [ 1.36 GB ] Поезд дальше не идет / Stag Night [2008 DVDRip] VintMosina Скачать
1 | 0


Последний раз редактировалось: DJERG (2012-07-28 07:54), всего редактировалось 3 раз(а)

28-11-2019 20:33  

Отключить всю рекламу на сайте

27-07-2012 16:00 Поезд дальше не идет Скачать торрент  

=))) можэно посмотрэтьpiratbit.org





Последний раз редактировалось: r0b0 (2013-03-06 13:20), всего редактировалось 1 раз

29-07-2012 10:06 Поезд дальше не идет Скачать торрент  

Фильм супер!!piratbit.org



    Дорогой пользователь! Огромная просьба, поблагодарите релизера, оцените раздачу и оставьте свои комментарий, если Вы скачали Поезд дальше не идет через торрент бесплатно! Внесите свою лепту в развитие PiratBit!
    Комментировать посты могут только пользователи прошедшие не сложную регистрацию
    Показать сообщения:    

    Поезд дальше не идет через торрент
    Скачать бесплатно Поезд дальше не идет
    Поезд дальше не идет скачать торрент
    Поезд дальше не идет смотреть онлайн
    Cкачать фильм Поезд дальше не идет бесплатно
    Поезд дальше не идет скачать торрент в хорошем качестве
    Поезд дальше не идет смотреть онлайн бесплатно в хорошем качестве


    Вы не можете начинать темы
    Вы не можете отвечать на сообщения
    Вы не можете редактировать свои сообщения
    Вы не можете удалять свои сообщения
    Вы не можете голосовать в опросах
    Вы не можете прикреплять файлы к сообщениям
    Вы можете скачивать файлы