Ссылка на приватное зеркало нашего сайта всего за 1$. Внимание количество ограничено!!!

2 сезон

iTunes

iTunes

1

iTunes

iTunes

iTunes

WEBRip

iTunes

30
pack

Вам бонус

ВАЖНО

!!Акция!!

Alien_RageХит недели

RePack

Horizon Zero Dawn

ИГРА 18+

pack

RePack

jed

!!Акция!!

Alien_Rage

RePack

fifa19

RePack

Assassins Creed: Odyssey

RePack

NEED FOR SPEED™ PAYBACK

4 сезон

9 сезон

Бесстыжие 9 сезон

Все сериалы

все сериалы на PB.wtf

RePack

FAR CRY 5
  

Свадебный уикенд / Shut Up and Sing (Брюс Ледди) [2006 г., драма, комедия, музыка, DVDRip, Профессиональный + Оригинал] piratbit.org

Свадебный уикенд через торрент piratbit.org

Размер: 1.37 GB | Добавлен: 8 лет 1 мес. назад | Торрент скачан:51 раз
Скачать  

31-07-2012 15:15 Свадебный уикенд Скачать торрент  

Свадебный уикенд / Shut Up and Sing

Год выпуска: 2006
Страна: США
Жанр: драма, комедия, музыка
Продолжительность: 01:30:46
Перевод: Профессиональный + Оригинал
Субтитры: Отсутствуют

Режиссер: Брюс Ледди
Продюссер: Брюс Ледди, Рик Карлсон, Абхишек Чаухан

IMDB 6.00 (462)


В ролях: Дэвид Харбор, Рег Роджерс, Александр Чаплин, Крис Бауэрс, Дэвид Алан Баш, Марк Фойерстин, Самрат Чакрабарти, Розмари ДеУитт, Молли Шеннон, Элизабет Ризер

Описание: Это история о группе друзей, которые собрались вместе, что бы спеть на свадьбе своего друга. Репетиция назначена на выходные, в охотничьем доме. Во время долгого уикенда, друзья весело размышляют о том, как складывается жизнь, и каких успехов достиг каждый из них.
Веселые воспоминания, сексуальные фантазии, невероятные приключения на свадебной вечеринке. Однако не всегда все складывается так, как хотелось бы…

Качество: DVDRip
Формат: AVI
Видео кодек: XviD
Аудио кодек: AC3
Видео: 704x384 (1.83:1), 25 fps, XviD MPEG-4 ~1692 kbps avg, 0.25 bit/pixel
Аудио#1: Русский: 8 kHz, AC3 Dolby Digital, 2/0 (L,R) ch, ~192 kbps
Аудио#2: Английский: 48 kHz, AC3 Dolby Digital, 2/0 (L,R) ch, ~256 kbps
Общее
Полное имя : F:\Закачки\Svadebnyj.Uikend.2006.XviD.DVDRip.avi
Формат : AVI
Формат/Информация : Audio Video Interleave
Размер файла : 1,37 Гбайт
Продолжительность : 1 ч. 30 м.
Общий поток : 2156 Кбит/сек
Программа кодирования : VirtualDubMod 1.5.10.2 (build 2540/release)
Библиотека кодирования : VirtualDubMod build 2540/release

Видео
Идентификатор : 0
Формат : MPEG-4 Visual
Профиль формата : Advanced Simple@L5
Параметр BVOP формата : 2
Параметр QPel формата : Нет
Параметр GMC формата : Без точки перехода
Параметр матрицы формата : Default (MPEG)
Режим смешивания : Сжатый битовый поток
Идентификатор кодека : XVID
Идентификатор кодека/Подсказка : XviD
Продолжительность : 1 ч. 30 м.
Битрейт : 1694 Кбит/сек
Ширина : 704 пикселя
Высота : 384 пикселя
Соотношение сторон : 1,85:1
Частота кадров : 25,000 кадров/сек
Цветовое пространство : YUV
Субдискретизация насыщенности : 4:2:0
Битовая глубина : 8 бит
Тип развёртки : Прогрессивная
Метод сжатия : С потерями
Бит/(Пиксели*Кадры) : 0.251
Размер потока : 1,07 Гбайт (79%)
Библиотека кодирования : XviD 1.2.0.dev47 (UTC 2006-11-01)

Аудио #1
Идентификатор : 1
Формат : AC-3
Формат/Информация : Audio Coding 3
Расширение режима : CM (complete main)
Параметр Endianness формата : Big
Идентификатор кодека : 2000
Продолжительность : 1 ч. 30 м.
Вид битрейта : Постоянный
Битрейт : 192 Кбит/сек
Каналы : 2 канала
Расположение каналов : Front: L R
Частота : 48,0 КГц
Битовая глубина : 16 бит
Метод сжатия : С потерями
Размер потока : 125 Мбайт (9%)
Выравнивание : Разделение по промежуткам
Продолжительность промежутка : 40 мс. (1,00 видеокадр)
Время предзагрузки промежутка : 500 мс.

Аудио #2
Идентификатор : 2
Формат : AC-3
Формат/Информация : Audio Coding 3
Расширение режима : CM (complete main)
Параметр Endianness формата : Big
Идентификатор кодека : 2000
Продолжительность : 1 ч. 30 м.
Вид битрейта : Постоянный
Битрейт : 256 Кбит/сек
Каналы : 2 канала
Расположение каналов : Front: L R
Частота : 48,0 КГц
Битовая глубина : 16 бит
Метод сжатия : С потерями
Размер потока : 166 Мбайт (12%)
Выравнивание : Разделение по промежуткам
Продолжительность промежутка : 40 мс. (1,00 видеокадр)
Время предзагрузки промежутка : 500 мс.

piratbit.org



Скачать Свадебный уикенд через торрент http://i41.fastpic.ru/big/2012/0731/9d/807e694b8e1a3d1a5b755443a59eb19d.jpg Скачать фильм Свадебный уикенд через торрент бесплантно в хорошем качестве Описание: Это история о группе друзей, которые собрались вместе, что бы спеть на свадьбе своего друга. Репетиция назначена на выходные, в ... 5 10 1
Info! Золотая раздача, скачанное не засчитывается.
Торрент: Зарегистрирован [2012-07-31 15:15] · скачан: 51 раз
Статус: √ проверено
Размер: 1.37 GB
Как cкачать? Как скачать Свадебный уикенд через торрент | qTorrent

28-11-2019 20:33  

Отключить всю рекламу на сайте

    Дорогой пользователь! Огромная просьба, поблагодарите релизера, оцените раздачу и оставьте свои комментарий, если Вы скачали Свадебный уикенд через торрент бесплатно! Внесите свою лепту в развитие PiratBit!
    Комментировать посты могут только пользователи прошедшие не сложную регистрацию
    Показать сообщения:    

    Свадебный уикенд через торрент
    Скачать бесплатно Свадебный уикенд
    Свадебный уикенд скачать торрент
    Свадебный уикенд смотреть онлайн
    Cкачать фильм Свадебный уикенд бесплатно
    Свадебный уикенд скачать торрент в хорошем качестве
    Свадебный уикенд смотреть онлайн бесплатно в хорошем качестве


    Вы не можете начинать темы
    Вы не можете отвечать на сообщения
    Вы не можете редактировать свои сообщения
    Вы не можете удалять свои сообщения
    Вы не можете голосовать в опросах
    Вы не можете прикреплять файлы к сообщениям
    Вы можете скачивать файлы